Loading...
Error

Скачать Любимчики / La tropa de trapo en el país donde siempre brilla el sol (Алекс Коллс) [2010, мультфильм, DVDRip] [Лицензия] торрент без регистрации

Статистика раздачи
Размер:  1,46 GB   |    Скачан:  143 раза

Полного источника не было: 19 минут

 
 
 
Автор Сообщение

МихаНЕзатор

[] 

Любимчики
/ La tropa de trapo en el país donde siempre brilla el sol Год выпуска: 2010
Страна: Испания
Киностудия: Abano Producions, Anera Films, Continental Producciones S.A, La Tropa de Trapo
Жанр: мультфильм
Продолжительность: 01:11:17
Перевод: Профессиональный (дублированный)
Субтитры: нет
Оригинальная аудиодорожка: испанский
Режиссер: Алекс Коллс / Alex Colls

Роли дублировали: Алексей Травин, Светлана Климович, Александр Шпынёв, Дмитрий Стрелков, Ольга Калачова...

Описание: Приключения коровки Му-Му и ее друзей. Чтобы стать настоящей звездой, ей предстоит отправиться в волшебную страну, где всегда светит солнышко. Во время путешествия она понимает, что не важно звезда ты или нет, главное, что у тебя есть друзья...



Тип релиза: DVDRip
Контейнер: AVI
Видео: 704x384 (1,855:1), 25 fps, XviD MPEG-4 ~ 2149 kbps avg, 0.318 bit/pixel
Аудио 1: 48 kHz, AC3, 6 ch, ~ 384.00 kbps, Русский
Аудио 2: 48 kHz, AC3, 6 ch, ~ 384.00 kbps, Испанский
Общее
Полное имя : Lyubimchiki.2011.D.DVDRip.avi
Формат : AVI
Формат/Информация : Audio Video Interleave
Размер файла : 1,46 Гбайт
Продолжительность : 1 ч. 11 м.
Общий поток : 2931 Кбит/сек
Программа кодирования : VirtualDubModRus 1.5.10.2 (build 2542/release)
Библиотека кодирования : VirtualDubMod build 2542/release
Видео
Идентификатор : 0
Формат : MPEG-4 Visual
Профиль формата : Advanced Simple@L5
Параметр BVOP формата : 1
Параметр QPel формата : Нет
Параметр GMC формата : Без точки перехода
Параметр матрицы формата : Выборочная
Идентификатор кодека : XVID
Идентификатор кодека/Подсказка : XviD
Продолжительность : 1 ч. 11 м.
Битрейт : 2149 Кбит/сек
Ширина : 704 пикселя
Высота : 384 пикселя
Соотношение сторон : 1,855
Частота кадров : 25,000 кадров/сек
Цветовое пространство : YUV
Субдискретизация насыщенности : 4:2:0
Битовая глубина : 8 бит
Тип развёртки : Прогрессивная
Метод сжатия : С потерями
Бит/(Пиксели*Кадры) : 0.318
Размер потока : 1,07 Гбайт (73%)
Библиотека кодирования : XviD 1.2.1 (UTC 2008-12-04)
Аудио #1
Идентификатор : 1
Формат : AC-3
Формат/Информация : Audio Coding 3
Расширение режима : CM (complete main)
Идентификатор кодека : 2000
Продолжительность : 1 ч. 11 м.
Вид битрейта : Постоянный
Битрейт : 384 Кбит/сек
Каналы : 6 каналов
Расположение каналов : Front: L C R, Side: L R, LFE
Частота : 48,0 КГц
Битовая глубина : 16 бит
Метод сжатия : С потерями
Размер потока : 196 Мбайт (13%)
Выравнивание : Разделение по промежуткам
Продолжительность промежутка : 40 мс. (1,00 видеокадр)
Время предзагрузки промежутка : 500 мс.
Аудио #2
Идентификатор : 2
Формат : AC-3
Формат/Информация : Audio Coding 3
Расширение режима : CM (complete main)
Идентификатор кодека : 2000
Продолжительность : 1 ч. 11 м.
Вид битрейта : Постоянный
Битрейт : 384 Кбит/сек
Каналы : 6 каналов
Расположение каналов : Front: L C R, Side: L R, LFE
Частота : 48,0 КГц
Битовая глубина : 16 бит
Метод сжатия : С потерями
Размер потока : 196 Мбайт (13%)
Выравнивание : Разделение по промежуткам
Продолжительность промежутка : 40 мс. (1,00 видеокадр)
Время предзагрузки промежутка : 500 мс.



Скачать Любимчики.La.tropa.de.trapo.en.el.país.donde.siempre.brilla.el.sol.(Алекс.Коллс).[2010.мультфильм.DVDRip].[Лицензия].torrent без регистрации
Золото ЗОЛОТАЯ РАЗДАЧА! СКАЧАННОЕ НЕ ЗАСЧИТЫВАЕТСЯ! Золото
Дата: Зарегистрирован   [ Тип: внутренний ] Как тут cкачать?
MAGNET ссылка
MAGNET ссылка


Скачать .torrent

15 KB

Статус: проверено DHT
Скачан: торрент - 143 раз, раздача полностью - 12 раз
Размер: 1,46 GB
Оценка:  - (Голосов: 0)
Поблагодарили: 0
Поделиться ссылкой на эту раздачу с друзьями:
В контактеFacebookОдноклассникиTwitterLivejournalМой МирLiveinternet
 

 
Показать сообщения:    


Вы не можете начинать темы
Вы не можете отвечать на сообщения
Вы не можете редактировать свои сообщения
Вы не можете удалять свои сообщения
Вы не можете голосовать в опросах
Вы не можете прикреплять файлы к сообщениям
Вы можете скачивать файлы