Loading...
Error

Скачать Зажигание / Ignition (Ив Симоно) [2001, боевик, триллер, драма, DVDRip] DVO торрент без регистрации

Статистика раздачи
Размер:  746 MB   |    Скачан:  135 раз

Полного источника не было: 1 год 6 месяцев

 
 
 
Автор Сообщение

leon030982

[] 

Зажигание / Ignition

Страна: Канадa Великобритания
Жанр: боевик, триллер, драма
Год выпуска:2001
Продолжительность: 01:35:05
Перевод:Профессиональный (двухголосый, закадровый)
Субтитры:нет
Режиссер: Ив Симоно / Yves Simoneau
В ролях:
Билл Пуллман, Лена Улин, Колм Фиор, Питер Кент, Барбара Ив Харрис, Николас Лиа, Хротгар Мэтьюз, Роджер Данн, Бенжамин Рэтнер...

Описание
Федеральный судья Фэйт Мэттис готовится к самому "взрывному" процессу в своей карьере - делу о коррупции в высших военных кругах. После покушения на жизнь Фэйт к ней приставляют телохранителя - бывшего сержанта корпуса морской пехоты Конора Галлахера. Вместе расследуя исчезновение важного свидетеля, они приоткрывают завесу тайны над преступной операцией по контрабанде оружия и наркотиков, возглавляемой генералом МакЭйтиром. Ставки в игре подняты на самый высокий уровень. Фэйт и Конор оказываются втянутыми в смертельно опасную сеть заговоров, предательств и убийств...

Тех данные
Качество видео: DVDRip
Формат видео: AVI
Видео кодек: XviD
Аудио кодек: MP3
Видео: 624x352 (1.77:1), 25 fps, XviD build 50 ~958 kbps avg, 0.17 bit/pixel
Аудио : 48 kHz, MPEG Layer 3, 2 ch, ~128.00 kbps avg

General
Complete name : F:\Фильмы\Zazhiganie.2001.DVDRip.avi
Format : AVI
Format/Info : Audio Video Interleave
File size : 746 MiB
Duration : 1h 35mn
Overall bit rate : 1 096 Kbps
Writing application : VirtualDubMod 1.5.10.3 | www.virtualdub-fr.org || (build 2550/release)
Writing library : VirtualDubMod build 2550/release
Video
ID : 0
Format : MPEG-4 Visual
Format profile : Advanced Simple@L5
Format settings, BVOP : Yes
Format settings, QPel : No
Format settings, GMC : No warppoints
Format settings, Matrix : Custom
Codec ID : XVID
Codec ID/Hint : XviD
Duration : 1h 35mn
Bit rate : 959 Kbps
Width : 624 pixels
Height : 352 pixels
Display aspect ratio : 16:9
Frame rate : 25.000 fps
Color space : YUV
Chroma subsampling : 4:2:0
Bit depth : 8 bits
Scan type : Progressive
Bits/(Pixel*Frame) : 0.175
Stream size : 652 MiB (87%)
Writing library : XviD 1.2.1 (UTC 2008-12-04)
Audio
ID : 1
Format : MPEG Audio
Format version : Version 1
Format profile : Layer 3
Codec ID : 55
Codec ID/Hint : MP3
Duration : 1h 35mn
Bit rate mode : Constant
Bit rate : 128 Kbps
Channel(s) : 2 channels
Sampling rate : 48.0 KHz
Stream size : 87.1 MiB (12%)
Alignment : Aligned on interleaves
Interleave, duration : 40 ms (1.00 video frame)
Interleave, preload duration : 504 ms
Writing library : LAME3.98r
Encoding settings : -m s -V 4 -q 2 -lowpass 17 -b 128



Скачать Зажигание.Ignition.(Ив.Симоно).[2001.боевик.триллер.драма.DVDRip].DVO.torrent без регистрации
Золото ЗОЛОТАЯ РАЗДАЧА! СКАЧАННОЕ НЕ ЗАСЧИТЫВАЕТСЯ! Золото
Дата: Зарегистрирован   [ Тип: внутренний ] Как тут cкачать?
MAGNET ссылка
MAGNET ссылка


Скачать .torrent

15 KB

Статус: проверено
Скачан: торрент - 135 раз, раздача полностью - 5 раз
Размер: 746 MB
Оценка:  - (Голосов: 0)
Поблагодарили: 2
Поделиться ссылкой на эту раздачу с друзьями:
В контактеFacebookОдноклассникиTwitterLivejournalМой МирLiveinternet
 

 
Показать сообщения:    


Вы не можете начинать темы
Вы не можете отвечать на сообщения
Вы не можете редактировать свои сообщения
Вы не можете удалять свои сообщения
Вы не можете голосовать в опросах
Вы не можете прикреплять файлы к сообщениям
Вы можете скачивать файлы