Loading...
Error

Скачать Наемные убийцы / Assassins (Ричард Доннер) [1995, боевик, триллер, драма, криминал, BDRip] [1080p] [DUB] торрент без регистрации

Статистика раздачи
Размер:  4,37 GB   |    Скачан:  182 раза

Полного источника не было: 19 минут

 
 
 
Автор Сообщение

Jenek

[] 

Информация о фильме
Название: Наемные убийцы
Оригинальное название: Assassins
Год выхода: 1995
Жанр: боевик, триллер, драма, криминал
Режиссер: Ричард Доннер
В ролях: Сильвестр Сталлоне, Антонио Бандерас, Джулианна Мур, Анатолий Давыдов, Мьюз Уотсон, Стив Кэхэн, Келли Роуэн, Рид Даймонд, Кай Вулфф, Керри Скалски, Джеймс Дуглас Хэскинс, Стивен Лиска...

О фильме:
Роберт Рэт - лучший киллер в округе, но кодекс чести и чувство долга, что некогда составляли часть его смертельной карьеры, исчезли. Мир, возникший после Холодной войны, переполнен «отморозками». Рэт хочет «завязать».
Другой киллер, Мигель Бэйн, амбициозный молодой человек - напротив желает стать первым в своем деле, и знает, как это сделать: уничтожить Рэта. Действие разворачивается стремительно и непредсказуемо, когда Сильвестр Сталлоне в роли Рэта и Антонио Бандерас в роли Бэйна защищают свою профессиональную честь наемных убийц.
Джулианна Мур играет хитрого хакера, затянутого в жестокую схватку киллерского дуэта.



Страна: США, Франция
Продолжительность: 02:12:44
Перевод: Дубляж

Файл
Кодек: H264
Качество: BDRip 1080p
Видео: 1920x1080, 4261 Kbps, 23,976 fps
Звук: 48 kHz, AC3, 6c, 448 kbps
Субтитры: Русские, Английские

Семпл
Общее
Формат : Matroska
Версия формата : Version 2
Размер файла : 4,37 Гбайт
Продолжительность : 2 ч. 12 м.
Общий поток : 4708 Кбит/сек
Название фильма : Assassins (1995) BDRip 1080p от Dimok
Дата кодирования : UTC 2012-04-22 03:18:38
Программа кодирования : mkvmerge v5.4.0 ('Piper') built on Mar 10 2012 13:34:39
Библиотека кодирования : libebml v1.2.3 + libmatroska v1.3.0

Видео
Идентификатор : 1
Формат : AVC
Формат/Информация : Advanced Video Codec
Профиль формата : High@L4.1
Параметр CABAC формата : Да
Параметр ReFrames формата : 4 кадра
Идентификатор кодека : V_MPEG4/ISO/AVC
Продолжительность : 2 ч. 12 м.
Битрейт : 4261 Кбит/сек
Ширина : 1920 пикселей
Высота : 1080 пикселей
Соотношение сторон : 16:9
Частота кадров : 23,976 кадра/сек
Цветовое пространство : YUV
Субдискретизация насыщенности : 4:2:0
Битовая глубина : 8 бит
Тип развёртки : Прогрессивная
Бит/(Пиксели*Кадры) : 0.086
Размер потока : 3,86 Гбайт (88%)
Библиотека кодирования : x264 core 122 r2184 5c85e0a
Настройки программы : cabac=1 / ref=4 / deblock=1:0:0 / analyse=0x3:0x133 / me=umh / subme=10 / psy=1 / psy_rd=1.00:0.10 / mixed_ref=1 / me_range=32 / chroma_me=1 / trellis=2 / 8x8dct=1 / cqm=0 / deadzone=21,11 / fast_pskip=0 / chroma_qp_offset=-3 / threads=6 / sliced_threads=0 / nr=0 / decimate=1 / interlaced=0 / bluray_compat=0 / constrained_intra=0 / bframes=6 / b_pyramid=2 / b_adapt=2 / b_bias=0 / direct=3 / weightb=1 / open_gop=0 / weightp=2 / keyint=240 / keyint_min=24 / scenecut=40 / intra_refresh=0 / rc_lookahead=55 / rc=2pass / mbtree=1 / bitrate=4261 / ratetol=1.0 / qcomp=0.65 / qpmin=0 / qpmax=69 / qpstep=4 / cplxblur=20.0 / qblur=0.5 / ip_ratio=1.40 / aq=1:1.00
Язык : English
Default : Да
Forced : Нет

Аудио
Идентификатор : 2
Формат : AC-3
Формат/Информация : Audio Coding 3
Расширение режима : CM (complete main)
Параметр Endianness формата : Big
Идентификатор кодека : A_AC3
Продолжительность : 2 ч. 12 м.
Вид битрейта : Постоянный
Битрейт : 448 Кбит/сек
Каналы : 6 каналов
Расположение каналов : Front: L C R, Side: L R, LFE
Частота : 48,0 КГц
Битовая глубина : 16 бит
Метод сжатия : С потерями
Размер потока : 425 Мбайт (10%)
Заголовок : Дубляж
Язык : Russian
Default : Да
Forced : Нет

Текст #1
Идентификатор : 3
Формат : UTF-8
Идентификатор кодека : S_TEXT/UTF8
Идентификатор кодека/Информация : UTF-8 Plain Text
Язык : Russian
Default : Да
Forced : Нет

Текст #2
Идентификатор : 4
Формат : UTF-8
Идентификатор кодека : S_TEXT/UTF8
Идентификатор кодека/Информация : UTF-8 Plain Text
Язык : English
Default : Нет
Forced : Нет

Меню
00:00:00.000 : en:00:00:00.000
00:05:35.293 : en:00:05:35.293
00:10:00.934 : en:00:10:00.934
00:14:44.467 : en:00:14:44.467
00:17:39.100 : en:00:17:39.100
00:19:01.640 : en:00:19:01.640
00:24:35.015 : en:00:24:35.015
00:30:03.719 : en:00:30:03.719
00:31:34.184 : en:00:31:34.184
00:34:57.804 : en:00:34:57.804
00:36:47.414 : en:00:36:47.414
00:37:56.774 : en:00:37:56.774
00:44:13.442 : en:00:44:13.442
00:48:12.473 : en:00:48:12.473
00:55:02.216 : en:00:55:02.216
00:59:54.925 : en:00:59:54.925
01:03:05.699 : en:01:03:05.699
01:06:50.506 : en:01:06:50.506
01:08:38.448 : en:01:08:38.448
01:12:37.270 : en:01:12:37.270
01:17:07.331 : en:01:17:07.331
01:20:52.556 : en:01:20:52.556
01:22:00.499 : en:01:22:00.499
01:27:24.281 : en:01:27:24.281
01:31:34.989 : en:01:31:34.989
01:35:18.004 : en:01:35:18.004
01:41:39.802 : en:01:41:39.802
01:42:59.840 : en:01:42:59.840
01:46:12.116 : en:01:46:12.116
01:47:33.530 : en:01:47:33.530
01:52:24.196 : en:01:52:24.196
01:55:42.602 : en:01:55:42.602
01:57:09.773 : en:01:57:09.773
01:59:17.984 : en:01:59:17.984
02:01:53.640 : en:02:01:53.640
02:03:05.712 : en:02:03:05.712
02:06:34.879 : en:02:06:34.879



Скачать Наемные.убийцы.Assassins.(Ричард.Доннер).[1995.боевик.триллер.драма.криминал.BDRip].[1080p].[DUB].torrent без регистрации
Золото ЗОЛОТАЯ РАЗДАЧА! СКАЧАННОЕ НЕ ЗАСЧИТЫВАЕТСЯ! Золото
Дата: Зарегистрирован   [ Тип: внутренний ] Как тут cкачать?
MAGNET ссылка
MAGNET ссылка


Скачать .torrent

22 KB

Статус: проверено DHT
Скачан: торрент - 182 раз, раздача полностью - 100 раз
Размер: 4,37 GB
Оценка:  5 (Голосов: 1)
Поблагодарили: 4
Поделиться ссылкой на эту раздачу с друзьями:
В контактеFacebookОдноклассникиTwitterLivejournalМой МирLiveinternet
 

 
Показать сообщения:    


Вы не можете начинать темы
Вы не можете отвечать на сообщения
Вы не можете редактировать свои сообщения
Вы не можете удалять свои сообщения
Вы не можете голосовать в опросах
Вы не можете прикреплять файлы к сообщениям
Вы можете скачивать файлы