Loading...
Error

Скачать Западня / Entrapment (Джон Эмиел / Jon Amiel) [1999, боевик, триллер, мелодрама, криминал, BDRemux] [1080p] [Dub] торрент без регистрации

Статистика раздачи
Размер:  22,25 GB   |    Скачан:  153 раза
Сидов:  1  [  0 KB/s  ]  
 
 
 
Автор Сообщение

Jenek

[] 

Западня / Entrapment
Страна: США, Германия, Великобритания
Жанр: боевик, триллер, мелодрама, криминал
Год выпуска: 1999
Продолжительность: 01:52:56
Перевод: Профессиональный (дублированный)
+ Профессиональный (многоголосый закадровый)
+ Профессиональный (многоголосый закадровый) (ТНТ)
+ Профессиональный (двухголосый закадровый) (НТВ)

+ Авторский (одноголосый, закадровый) (Кашкин)
+ Авторский (одноголосый, закадровый) (Гаврилов)
+ Оригинал
Cубтитры: русские (forced), русские (full), английские
Режиссер: Джон Эмиел / Jon Amiel
В ролях: Шон Коннери, Кэтрин Зета-Джонс, Винг Рэймс, Уилл Пэттон, Мори Чайкин, Кевин МакНэлли, Терри О’Нил, Мадхав Шарма, Дэвид Ип, Тим Поттер
Описание: Роберт МакДугал, уже пожилой, но еще крепкий мужчина импозантной внешности, - выдающийся вор международного масштаба. Во время кражи полотна Рембрандта судьба сводит его с очаровательной конкуренткой Вирджинией, тоже воровкой большого таланта. Она следователь страховой компании.
Еще ни разу МакДугала не удавалось поймать с поличным. Виджиния надеется, что ей удастся войти к нему в доверие и заманить в западню. Оба они - люди неординарные - начинают работать вместе. Крадут старинную китайскую золотую маску, а затем планируют кражу путем компьютерного перевода на свой счет с разных корпоративных счетов 8 млрд. долларов.
Однако случается непредвиденное: Роберт и Вирджиния испытывают друг к другу нежные чувства, между ними начинается роман. Это доставляет массу неудобств и им самим, и спецслужбам различных стран...
Сэмпл: http://sendfile.su/577626
Дорожка Гаврилова получена путем наложения чистого голоса на центр декодированного DTS HD.
Тип релиза: BDRemux 1080p
Контейнер: MKV
Видео: 1920x1080p, 23.976 fps, Mpeg-2, 18618 kbps
Аудио 1: AC3 5.1 / 48 kHz / 448 kbps |Dub|
Аудио 2: AC3 2.0 / 48 kHz / 192 kbps |MVO|
Аудио 3: AC3 2.0 / 48 kHz / 192 kbps |ТНТ|
Аудио 4: AC3 2.0 / 48 kHz / 192 kbps |НТВ|
Аудио 6: AC3 2.0 / 48 kHz / 192 kbps |Кашкин|
Аудио 7: DTS-HD Master Audio 5.1 / 48 kHz / 4202 kbps / 24-bit (DTS Core: 5.1 / 48 kHz / 1509 kbps / 24-bit) |Гаврилов|
Аудио 8: DTS-HD Master Audio 5.1 / 48 kHz / 4165 kbps / 24-bit (DTS Core: 5.1 / 48 kHz / 1509 kbps / 24-bit) |Оригинал|
General
Complete name : D:\Entrapment.BDRemux.1080p.Mpeg2.AC3.DTSHD.MA.Rus.Eng.mkv
Format : Matroska
Format version : Version 2
File size : 22.3 GiB
Duration : 1h 53mn
Overall bit rate mode : Variable
Overall bit rate : 28.2 Mbps
Encoded date : UTC 2012-04-21 21:41:28
Writing application : mkvmerge v5.2.1 ('A Far Off Place') built on Jan 2 2012 23:21:10
Writing library : libebml v1.2.3 + libmatroska v1.3.0
Video
ID : 1
Format : MPEG Video
Format version : Version 2
Format profile : Main@High
Format settings, BVOP : Yes
Format settings, Matrix : Custom
Codec ID : V_MPEG2
Codec ID/Info : MPEG 1 or 2 Video
Duration : 1h 53mn
Bit rate mode : Variable
Bit rate : 23.3 Mbps
Maximum bit rate : 40.0 Mbps
Width : 1 920 pixels
Height : 1 080 pixels
Display aspect ratio : 16:9
Frame rate : 23.976 fps
Color space : YUV
Chroma subsampling : 4:2:0
Bit depth : 8 bits
Scan type : Progressive
Compression mode : Lossy
Bits/(Pixel*Frame) : 0.468
Stream size : 18.4 GiB (83%)
Language : English
Default : No
Forced : No
Audio #1
ID : 2
Format : AC-3
Format/Info : Audio Coding 3
Mode extension : CM (complete main)
Codec ID : A_AC3
Duration : 1h 53mn
Bit rate mode : Constant
Bit rate : 448 Kbps
Channel(s) : 6 channels
Channel positions : Front: L C R, Side: L R, LFE
Sampling rate : 48.0 KHz
Bit depth : 16 bits
Compression mode : Lossy
Stream size : 362 MiB (2%)
Title : Дубляж
Language : Russian
Default : Yes
Forced : No
Audio #2
ID : 3
Format : AC-3
Format/Info : Audio Coding 3
Mode extension : CM (complete main)
Codec ID : A_AC3
Duration : 1h 53mn
Bit rate mode : Constant
Bit rate : 192 Kbps
Channel(s) : 2 channels
Channel positions : Front: L R
Sampling rate : 48.0 KHz
Bit depth : 16 bits
Compression mode : Lossy
Stream size : 155 MiB (1%)
Title : MVO
Language : Russian
Default : No
Forced : No
Audio #3
ID : 4
Format : AC-3
Format/Info : Audio Coding 3
Mode extension : CM (complete main)
Codec ID : A_AC3
Duration : 1h 53mn
Bit rate mode : Constant
Bit rate : 192 Kbps
Channel(s) : 2 channels
Channel positions : Front: L R
Sampling rate : 48.0 KHz
Bit depth : 16 bits
Compression mode : Lossy
Stream size : 155 MiB (1%)
Title : MVO (ТНТ)
Language : Russian
Default : No
Forced : No
Audio #4
ID : 5
Format : AC-3
Format/Info : Audio Coding 3
Mode extension : CM (complete main)
Codec ID : A_AC3
Duration : 1h 53mn
Bit rate mode : Constant
Bit rate : 192 Kbps
Channel(s) : 2 channels
Channel positions : Front: L R
Sampling rate : 48.0 KHz
Bit depth : 16 bits
Compression mode : Lossy
Stream size : 155 MiB (1%)
Title : DVO (НТВ)
Language : Russian
Default : No
Forced : No
Audio #5
ID : 6
Format : AC-3
Format/Info : Audio Coding 3
Mode extension : CM (complete main)
Codec ID : A_AC3
Duration : 1h 53mn
Bit rate mode : Constant
Bit rate : 192 Kbps
Channel(s) : 2 channels
Channel positions : Front: L R
Sampling rate : 48.0 KHz
Bit depth : 16 bits
Compression mode : Lossy
Stream size : 155 MiB (1%)
Title : AVO (Кашкин)
Language : Russian
Default : No
Forced : No
Audio #6
ID : 7
Format : DTS
Format/Info : Digital Theater Systems
Format profile : MA / Core
Codec ID : A_DTS
Duration : 1h 53mn
Bit rate mode : Variable
Bit rate : 1 561 Kbps / 1 510 Kbps
Channel(s) : 6 channels
Channel positions : Front: L C R, Side: L R, LFE
Sampling rate : 48.0 KHz
Bit depth : 24 bits
Compression mode : Lossless / Lossy
Title : AVO (Гаврилов)
Language : Russian
Default : No
Forced : No
Audio #7
ID : 8
Format : DTS
Format/Info : Digital Theater Systems
Format profile : MA / Core
Codec ID : A_DTS
Duration : 1h 53mn
Bit rate mode : Variable
Bit rate : 1 561 Kbps / 1 510 Kbps
Channel(s) : 6 channels
Channel positions : Front: L C R, Side: L R, LFE
Sampling rate : 48.0 KHz
Bit depth : 24 bits
Compression mode : Lossless / Lossy
Title : Оригинал
Language : English
Default : No
Forced : No
Text #1
ID : 9
Format : UTF-8
Codec ID : S_TEXT/UTF8
Codec ID/Info : UTF-8 Plain Text
Title : Rus (Forced)
Language : Russian
Default : No
Forced : No
Text #2
ID : 10
Format : UTF-8
Codec ID : S_TEXT/UTF8
Codec ID/Info : UTF-8 Plain Text
Title : Rus (Full)
Language : Russian
Default : No
Forced : No
Text #3
ID : 11
Format : UTF-8
Codec ID : S_TEXT/UTF8
Codec ID/Info : UTF-8 Plain Text
Title : Eng
Language : English
Default : No
Forced : No
Menu
00:00:00.000 : en:Main Titles
00:01:55.115 : en:Hi-Tech Robbery
00:09:22.061 : en:A Suspect
00:13:31.227 : en:Entrapment
00:20:01.867 : en:Blackmail
00:25:12.010 : en:Advanced Preparation
00:39:28.992 : en:The Party Dress
00:42:24.584 : en:Upstairs
00:45:17.965 : en:The Masked Ball
00:47:23.174 : en:The Mask
00:56:17.749 : en:Truth or Dare
00:58:30.340 : en:It's A Bank
01:04:21.066 : en:Sizing Up the Job
01:07:18.493 : en:Show and Tell
01:09:59.028 : en:Changing the Rules
01:19:42.695 : en:New Year's Eve
01:26:08.622 : en:Countdown
01:27:29.786 : en:System Breach
01:28:50.659 : en:Elevator Five
01:31:31.486 : en:Escape
01:35:16.461 : en:Plan B
01:38:27.652 : en:The Way It Has to Be
01:43:30.996 : en:The End of a Terrible Friendship
01:47:25.814 : en:End Titles



Скачать Западня.Entrapment.(Джон.Эмиел.Jon.Amiel).[1999.боевик.триллер.мелодрама.криминал.BDRemux].[1080p].[Dub].torrent без регистрации
Золото ЗОЛОТАЯ РАЗДАЧА! СКАЧАННОЕ НЕ ЗАСЧИТЫВАЕТСЯ! Золото
Дата: Зарегистрирован   [ Тип: внутренний ] Как тут cкачать?
MAGNET ссылка
MAGNET ссылка


Скачать .torrent

112 KB

Статус: проверено DHT
Скачан: торрент - 153 раз, раздача полностью - 6 раз
Размер: 22,25 GB
Оценка:  - (Голосов: 0)
Поблагодарили: 1
Поделиться ссылкой на эту раздачу с друзьями:
В контактеFacebookОдноклассникиTwitterLivejournalМой МирLiveinternet
 

 
Показать сообщения:    


Вы не можете начинать темы
Вы не можете отвечать на сообщения
Вы не можете редактировать свои сообщения
Вы не можете удалять свои сообщения
Вы не можете голосовать в опросах
Вы не можете прикреплять файлы к сообщениям
Вы можете скачивать файлы