Loading...
Error

Скачать Горячие головы / Hot Shots! (Джим Абрахамс) [1991, Комедия, HDTVRip] [720p] [DVO]+[MVO]+[AVO] торрент без регистрации

Статистика раздачи
Размер:  4,72 GB   |    Скачан:  159 раз
Сидов:  1  [  0 KB/s  ]  
 
 
 
Автор Сообщение

Marsianka

[] 

Информация о фильме
Название: Горячие головы
Оригинальное название: Hot Shots!
Год выхода: 1991
Жанр: Комедия
Режиссер: Джим Абрахамс
В ролях: Чарли Шин, Кэри Элвес, Валерия Голино, Джон Крайер, Кевин Данн, Билл Ирвин, Ллойд Бриджес, Кристи Свэнсон

О фильме:
Анекдотичные ситуации на военной базе, где герои, сами того не замечая, пародируют самые известные фильмы, заставят вас безудержно хохотать на протяжении всего фильма. Их горячие головы производят такое количество несуразных идей, что находиться рядом с ними просто опасно для здоровья.



Страна: США
Студия: 20th Century Fox
Продолжительность: 01:21:09
Перевод: Профессиональный двухголосый, закадровый "НТВ", Профессиональный многоголосый, закадровый "1 канал", Авторский одноголосый (А. Михалёв)

Файл
Кодек: H 264
Качество: HDTVRip 720p
Видео: 6433 kb/s, 1280x720
Звук:
Аудио#1: Russian: AC3, (2 ch), 192 kb/s|Двухголосый перевод, "НТВ"
Аудио#2: Russian: AC3, (6 ch), 448 kb/s|Многоголосый перевод, "1 канал"
Аудио#3: Russian: AC3, (6 ch), 640 kb/s|Авторский одноголосый (А. Михалёв)
Аудио#4: English: AC3, (2 Ch), 448kb/s

Семпл
General
Unique ID : 209434855457301550943119196763479005547 (0x9D8FAF9A92F58207961F7C3543A6D96B)
Complete name : C:UsersСергейDownloadsОбычные фильмыгорячие головыГорячие головы.HDTV720.mkv
Format : Matroska
Format version : Version 2
File size : 4.72 GiB
Duration : 1h 21mn
Overall bit rate : 8 326 Kbps
Encoded date : UTC 2012-04-23 08:20:10
Writing application : mkvmerge v5.5.0 ('Healer') built on Apr 6 2012 21:43:24
Writing library : libebml v1.2.3 + libmatroska v1.3.0

Video
ID : 1
Format : AVC
Format/Info : Advanced Video Codec
Format profile : Main@L3.1
Format settings, CABAC : Yes
Format settings, ReFrames : 3 frames
Codec ID : V_MPEG4/ISO/AVC
Duration : 1h 21mn
Bit rate : 6 433 Kbps
Nominal bit rate : 6 800 Kbps
Width : 1 280 pixels
Height : 720 pixels
Display aspect ratio : 16:9
Frame rate : 25.000 fps
Color space : YUV
Chroma subsampling : 4:2:0
Bit depth : 8 bits
Scan type : Progressive
Bits/(Pixel*Frame) : 0.279
Stream size : 3.65 GiB (77%)
Writing library : x264 core 65 r999kMod cc51047
Encoding settings : cabac=1 / ref=3 / deblock=1:-2:-1 / analyse=0x1:0x131 / me=umh / subme=7 / psy_rd=1.0:0.0 / mixed_ref=1 / me_range=16 / chroma_me=1 / trellis=2 / 8x8dct=0 / cqm=0 / deadzone=21,11 / chroma_qp_offset=-2 / threads=2 / thread_queue=2 / nr=0 / decimate=0 / mbaff=0 / bframes=3 / b_pyramid=0 / b_adapt=1 / b_bias=0 / direct=1 / wpredb=1 / keyint=250 / keyint_min=25 / scenecut=40(pre) / rc=abr / bitrate=6800 / ratetol=1.0 / qcomp=0.60 / qpmin=10 / qpmax=51 / qpstep=4 / ip_ratio=1.40 / pb_ratio=1.30 / aq=1:1.00
Default : Yes
Forced : No

Audio #1
ID : 2
Format : AC-3
Format/Info : Audio Coding 3
Mode extension : CM (complete main)
Codec ID : A_AC3
Duration : 1h 21mn
Bit rate mode : Constant
Bit rate : 192 Kbps
Channel(s) : 2 channels
Channel positions : Front: L R
Sampling rate : 48.0 KHz
Bit depth : 16 bits
Compression mode : Lossy
Stream size : 112 MiB (2%)
Title : НТВ
Language : Russian
Default : No
Forced : No

Audio #2
ID : 3
Format : AC-3
Format/Info : Audio Coding 3
Mode extension : CM (complete main)
Codec ID : A_AC3
Duration : 1h 21mn
Bit rate mode : Constant
Bit rate : 448 Kbps
Channel(s) : 6 channels
Channel positions : Front: L C R, Side: L R, LFE
Sampling rate : 48.0 KHz
Bit depth : 16 bits
Compression mode : Lossy
Stream size : 260 MiB (5%)
Title : ОРТ
Language : Russian
Default : No
Forced : No

Audio #3
ID : 4
Format : AC-3
Format/Info : Audio Coding 3
Mode extension : CM (complete main)
Codec ID : A_AC3
Duration : 1h 21mn
Bit rate mode : Constant
Bit rate : 640 Kbps
Channel(s) : 6 channels
Channel positions : Front: L C R, Side: L R, LFE
Sampling rate : 48.0 KHz
Bit depth : 16 bits
Compression mode : Lossy
Stream size : 372 MiB (8%)
Title : Михалёв
Language : Russian
Default : No
Forced : No

Audio #4
ID : 5
Format : AC-3
Format/Info : Audio Coding 3
Mode extension : CM (complete main)
Codec ID : A_AC3
Duration : 1h 21mn
Bit rate mode : Constant
Bit rate : 448 Kbps
Channel(s) : 2 channels
Channel positions : Front: L R
Sampling rate : 48.0 KHz
Bit depth : 16 bits
Compression mode : Lossy
Stream size : 260 MiB (5%)
Language : English
Default : No
Forced : No



Скачать Горячие.головы.Hot.Shots!.(Джим.Абрахамс).[1991.Комедия.HDTVRip].[720p].[DVO]+[MVO]+[AVO].torrent без регистрации
Золото ЗОЛОТАЯ РАЗДАЧА! СКАЧАННОЕ НЕ ЗАСЧИТЫВАЕТСЯ! Золото
Дата: Зарегистрирован   [ Тип: внутренний ] Как тут cкачать?
MAGNET ссылка
MAGNET ссылка


Скачать .torrent

24 KB

Статус: проверено DHT
Скачан: торрент - 159 раз, раздача полностью - 67 раз
Размер: 4,72 GB
Оценка:  5 (Голосов: 1)
Поблагодарили: 1
Поделиться ссылкой на эту раздачу с друзьями:
В контактеFacebookОдноклассникиTwitterLivejournalМой МирLiveinternet
 

 
Показать сообщения:    


Вы не можете начинать темы
Вы не можете отвечать на сообщения
Вы не можете редактировать свои сообщения
Вы не можете удалять свои сообщения
Вы не можете голосовать в опросах
Вы не можете прикреплять файлы к сообщениям
Вы можете скачивать файлы