Loading...
Error

Скачать Горячий снег / The Hot Snow (Гавриил Егиазаров) [1974, военный, DVDRip-AVC] торрент без регистрации

Статистика раздачи
Размер:  1,62 GB   |    Скачан:  171 раз
Сидов:  1  [  0 KB/s  ]  
 
 
 
Автор Сообщение

МихаНЕзатор

[] 

Горячий снег


Год выпуска: 1972
Страна: СССР
Жанр: военный, ...
Продолжительность: 01:38:52
Перевод: Не требуется
Субтитры: Russian (UTF-8), English (UTF-8), German (UTF-8)

Режиссер: Гавриил Егиазаров
Сценарий: Юрий Бондарев, Евгений Григорьев, Гавриил Егиазаров
Оператор: Федор Добронравов
Композитор: Альфред Шнитке
Художник: Василий Голиков


В ролях: Георгий Жжёнов, Анатолий Кузнецов, Борис Токарев, Вадим Спиридонов, Тамара Седельникова, Ара Бабаджанян, Юрий Назаров, Алексей Панькин, Валентин Грачев, Константин Тыртов, Болот Бейшеналиев, Игорь Ледогоров, Александр Кавалеров, Николай Ерёменко мл., Владимир Протасенко, Лев Золотухин, Павел Сиротин, Харий Швейц, Александр Воеводин, Вадим Власов

Описание: Фильм рассказывает об одном из эпизодов героического сражения против фашистов на подступах к Сталинграду, в котором в полной мере проявились стойкость и сила духа русских солдат, защищавших родную землю.
Зрители: СССР 22.9 млн
Премьера (мир): 18 декабря 1972, ...
Релиз на DVD: 2005 год, "Ruscico"

Релиз группы:


Качество: DVDRip
Формат: MKV
Видео кодек: AVC
Аудио кодеk: AC3
Видео: 720x352 (2.045:1), 29.970 fps, AVC, 999 Kbps
Аудио: Аудио #1: AC3, 448 Kbps, 48.0 KHz, 6 ch Russian (Original)
Аудио #2: AC3, 448 Kbps, 48.0 KHz, 6 ch English (Dup)
Аудио #3: AC3, 448 Kbps, 48.0 KHz, 6 ch German (Dup)

Общее
Уникальный идентификатор : 248934349135767572718757122094474446619 (0xBB4702FFFF5D79E78D0ABAEE73B7C71B)
Полное имя : The Hot Snow (1974) DVDRip AVC.mkv
Формат : Matroska
Версия формата : Version 2
Размер файла : 1,62 Гбайт
Продолжительность : 1 ч. 38 м.
Общий поток : 2346 Кбит/сек
Дата кодирования : UTC 2012-05-07 04:43:16
Программа кодирования : mkvmerge v5.5.0 ('Healer') built on Apr 6 2012 21:43:24
Библиотека кодирования : libebml v1.2.3 + libmatroska v1.3.0

Видео
Идентификатор : 1
Формат : AVC
Формат/Информация : Advanced Video Codec
Профиль формата : High@L4.1
Параметр CABAC формата : Да
Параметр ReFrames формата : 4 кадра
Идентификатор кодека : V_MPEG4/ISO/AVC
Продолжительность : 1 ч. 38 м.
Битрейт : 999 Кбит/сек
Ширина : 720 пикселей
Высота : 352 пикселя
Соотношение сторон : 2,045
Частота кадров : 29,970 кадров/сек
Цветовое пространство : YUV
Субдискретизация насыщенности : 4:2:0
Битовая глубина : 8 бит
Тип развёртки : Прогрессивная
Бит/(Пиксели*Кадры) : 0.132
Размер потока : 675 Мбайт (41%)
Заголовок : Видео
Библиотека кодирования : x264 core 124 r2197 69a0443
Настройки программы : cabac=1 / ref=4 / deblock=1:-3:-2 / analyse=0x3:0x133 / me=umh / subme=10 / psy=1 / psy_rd=1.00:0.15 / mixed_ref=1 / me_range=32 / chroma_me=1 / trellis=2 / 8x8dct=1 / cqm=0 / deadzone=21,11 / fast_pskip=0 / chroma_qp_offset=-3 / threads=3 / sliced_threads=0 / nr=0 / decimate=1 / interlaced=0 / bluray_compat=0 / constrained_intra=0 / bframes=8 / b_pyramid=2 / b_adapt=2 / b_bias=0 / direct=3 / weightb=1 / open_gop=0 / weightp=2 / keyint=300 / keyint_min=29 / scenecut=40 / intra_refresh=0 / rc_lookahead=50 / rc=2pass / mbtree=1 / bitrate=999 / ratetol=1.0 / qcomp=0.80 / qpmin=0 / qpmax=51 / qpstep=4 / cplxblur=20.0 / qblur=0.5 / ip_ratio=1.40 / aq=1:1.00
Язык : Russian
Default : Да
Forced : Нет
Основные цвета : BT.470-6 System B, BT.470-6 System G, BT.601-6 625, BT.1358 625, BT.1700 625 PAL, BT.1700 625 SECAM
Характеристики трансфера : BT.470-6 System B, BT.470-6 System G
Коэффициенты матрицы : BT.470-6 System B, BT.470-6 System G, BT.601-6 625, BT.1358 625, BT.1700 625 PAL, BT.1700 625 SECAM, IEC 61966-2-4 601

Аудио #1
Идентификатор : 2
Формат : AC-3
Формат/Информация : Audio Coding 3
Расширение режима : CM (complete main)
Параметр Endianness формата : Big
Идентификатор кодека : A_AC3
Продолжительность : 1 ч. 38 м.
Вид битрейта : Постоянный
Битрейт : 448 Кбит/сек
Каналы : 6 каналов
Расположение каналов : Front: L C R, Side: L R, LFE
Частота : 48,0 КГц
Битовая глубина : 16 бит
Метод сжатия : С потерями
Задержка видео : 500 мс.
Размер потока : 317 Мбайт (19%)
Заголовок : Аудио 1 Original
Язык : Russian
Default : Да
Forced : Нет

Аудио #2
Идентификатор : 3
Формат : AC-3
Формат/Информация : Audio Coding 3
Расширение режима : CM (complete main)
Параметр Endianness формата : Big
Идентификатор кодека : A_AC3
Продолжительность : 1 ч. 38 м.
Вид битрейта : Постоянный
Битрейт : 448 Кбит/сек
Каналы : 6 каналов
Расположение каналов : Front: L C R, Side: L R, LFE
Частота : 48,0 КГц
Битовая глубина : 16 бит
Метод сжатия : С потерями
Задержка видео : 500 мс.
Размер потока : 317 Мбайт (19%)
Заголовок : Аудио 2 Dub
Язык : English
Default : Нет
Forced : Нет

Аудио #3
Идентификатор : 4
Формат : AC-3
Формат/Информация : Audio Coding 3
Расширение режима : CM (complete main)
Параметр Endianness формата : Big
Идентификатор кодека : A_AC3
Продолжительность : 1 ч. 38 м.
Вид битрейта : Постоянный
Битрейт : 448 Кбит/сек
Каналы : 6 каналов
Расположение каналов : Front: L C R, Side: L R, LFE
Частота : 48,0 КГц
Битовая глубина : 16 бит
Метод сжатия : С потерями
Задержка видео : 500 мс.
Размер потока : 317 Мбайт (19%)
Заголовок : Аудио 3 Dub
Язык : German
Default : Нет
Forced : Нет

Текст #1
Идентификатор : 5
Формат : UTF-8
Идентификатор кодека : S_TEXT/UTF8
Идентификатор кодека/Информация : UTF-8 Plain Text
Заголовок : Cсубтитры 1
Язык : Russian
Default : Да
Forced : Нет

Текст #2
Идентификатор : 6
Формат : UTF-8
Идентификатор кодека : S_TEXT/UTF8
Идентификатор кодека/Информация : UTF-8 Plain Text
Заголовок : Cсубтитры 2
Язык : English
Default : Нет
Forced : Нет

Текст #3
Идентификатор : 7
Формат : UTF-8
Идентификатор кодека : S_TEXT/UTF8
Идентификатор кодека/Информация : UTF-8 Plain Text
Заголовок : Cсубтитры 3
Язык : German
Default : Нет
Forced : Нет

Меню
00:00:00.000 : ru:MORNING/УТРОМ
00:08:23.334 : ru:CONFERENCE/СОВЕЩАНИЕ
00:12:18.334 : ru:TO THE FRONTLINE/К ЛИНИИ ФРОНТА
00:20:23.168 : ru:ON THE ROAD/В ДОРОГЕ
00:27:03.235 : ru:TRENCHES/ТРАНШЕИ
00:31:43.402 : ru:BATTERY COMMANDER/КОМАНДИР БАТАРЕИ
00:37:42.802 : ru:ATTACK/АТАКА
00:45:05.236 : ru:KUZNETSOV/КУЗНЕЦОВ
00:51:04.403 : ru:OFFENSIVE/НАСТУПЛЕНИЕ
00:59:21.204 : ru:ORDER/ПРИКАЗ
01:07:52.771 : ru:ENCIRCLEMENT/ОКРУЖЕНИЕ
01:12:59.672 : ru:IN THE HUT/В ИЗБЕ
01:19:39.139 : ru:PRISONER/ПЛЕННЫЙ
01:22:39.473 : ru:TANYA/ТАНЯ
01:31:22.540 : ru:THE ALIVE/ЖИВЫЕ























Скачать Горячий.снег.The.Hot.Snow.(Гавриил.Егиазаров).[1974.военный.DVDRip-AVC].torrent без регистрации
Золото ЗОЛОТАЯ РАЗДАЧА! СКАЧАННОЕ НЕ ЗАСЧИТЫВАЕТСЯ! Золото
Дата: Зарегистрирован   [ Тип: внутренний ] Как тут cкачать?
MAGNET ссылка
MAGNET ссылка


Скачать .torrent

17 KB

Статус: проверено DHT
Скачан: торрент - 171 раз, раздача полностью - 39 раз
Размер: 1,62 GB
Оценка:  5 (Голосов: 3)
Поблагодарили: 5
Поделиться ссылкой на эту раздачу с друзьями:
В контактеFacebookОдноклассникиTwitterLivejournalМой МирLiveinternet
 

 
Показать сообщения:    


Вы не можете начинать темы
Вы не можете отвечать на сообщения
Вы не можете редактировать свои сообщения
Вы не можете удалять свои сообщения
Вы не можете голосовать в опросах
Вы не можете прикреплять файлы к сообщениям
Вы можете скачивать файлы