Loading...
Error

Скачать 50 первых поцелуев / 50 First Dates (Питер Сигал) [2004, мелодрама, комедия, BDRip-AVC] [Dub]+[Оригинал]+[Sub] торрент без регистрации

Статистика раздачи
Размер:  1,45 GB   |    Скачан:  188 раз
Сидов:  1  [  0 KB/s  ]  
 
 
 
Автор Сообщение

Marsianka

[] 

50 первых поцелуев / 50 First Dates (2004) BDRip-AVC

Информация о фильме
Название: 50 первых поцелуев
Оригинальное название: 50 First Dates
Год выхода: 2004
Жанр: мелодрама, комедия
Режиссер: Питер Сигал

В ролях: Адам Сэндлер, Дрю Бэрримор, Роб Шнайдер, Шон Эстин, Люсия Струс, Дэн Эйкройд, Эми Хилл, Аллен Коверт, Блейк Кларк, Майя Рудольф...

О фильме: Генри Рот влюбляется в очаровательную Люси. Несмотря на небольшие помехи, уже к вечеру настойчивому Ромео удается добиться взаимности красавицы. Молодые люди счастливы и уверены, что их любовь продлится вечно.

Увы, из-за последствий автомобильной аварии, девушка утром не помнит ничего из того, что произошло накануне. Несмотря на это, Генри не намерен сдаваться и собирается бороться за свою любовь, даже если ради этого ему и придется влюблять в себя Люси каждый день!



Страна: США
Продолжительность: 01:39:03
Перевод: Дублированный, Оригинал (Английский)

Файл
Кодек: h.264
Качество: BDRip-AVC
Видео: 1024x428 (2,40:1), 23.976 fps, 1517 kbps, 0.144 bit/pixel
Аудио #1: 48 kHz, AC3 5.1, 384.00 kbps (Русский)
Аудио #2: 48 kHz, AC3 2.0, 192.00 kbps (Английский)
Субтитры: Русские, Английские (отключаемые)

&
Общее
Уникальный идентификатор : 227963423646356022022466358620507099771 (0xAB80288BC25620C4B172AD26619C527B)
Полное имя : D:50 First Dates.2004.BDRip-AVC.mkv
Формат : Matroska
Версия формата : Version 2
Размер файла : 1,45 Гбайт
Продолжительность : 1 ч. 39 м.
Общий поток : 2094 Кбит/сек
Название фильма : 50 первых поцелуев / 50 First Dates (2004) BDRip-AVC rip by Rulya74
Дата кодирования : UTC 2012-11-22 04:40:23
Программа кодирования : mkvmerge v5.7.0 ('The Whirlwind') built on Jul 8 2012 20:08:51
Библиотека кодирования : libebml v1.2.3 + libmatroska v1.3.0

Видео
Идентификатор : 1
Формат : AVC
Формат/Информация : Advanced Video Codec
Профиль формата : High@L4.1
Параметр CABAC формата : Да
Параметр ReFrames формата : 12 кадров
Идентификатор кодека : V_MPEG4/ISO/AVC
Продолжительность : 1 ч. 39 м.
Битрейт : 1517 Кбит/сек
Ширина : 1024 пикселя
Высота : 428 пикселей
Соотношение сторон : 2,40:1
Частота кадров : 23,976 кадра/сек
Цветовое пространство : YUV
Субдискретизация насыщенности : 4:2:0
Битовая глубина : 8 бит
Тип развёртки : Прогрессивная
Бит/(Пиксели*Кадры) : 0.144
Размер потока : 1,02 Гбайт (71%)
Библиотека кодирования : x264 core 129 r2230 1cffe9f
Настройки программы : cabac=1 / ref=12 / deblock=1:-2:-1 / analyse=0x3:0x133 / me=umh / subme=10 / psy=1 / psy_rd=1.09:0.06 / mixed_ref=1 / me_range=32 / chroma_me=1 / trellis=2 / 8x8dct=1 / cqm=0 / deadzone=21,11 / fast_pskip=0 / chroma_qp_offset=-3 / threads=2 / lookahead_threads=1 / sliced_threads=0 / nr=0 / decimate=1 / interlaced=0 / bluray_compat=0 / constrained_intra=0 / bframes=5 / b_pyramid=2 / b_adapt=2 / b_bias=0 / direct=3 / weightb=1 / open_gop=0 / weightp=2 / keyint=230 / keyint_min=23 / scenecut=40 / intra_refresh=0 / rc_lookahead=40 / rc=2pass / mbtree=1 / bitrate=1517 / ratetol=1.0 / qcomp=0.60 / qpmin=0 / qpmax=69 / qpstep=4 / cplxblur=20.0 / qblur=0.5 / ip_ratio=1.40 / aq=2:1.00
Default : Да
Forced : Нет

Аудио #1
Идентификатор : 2
Формат : AC-3
Формат/Информация : Audio Coding 3
Расширение режима : CM (complete main)
Идентификатор кодека : A_AC3
Продолжительность : 1 ч. 39 м.
Вид битрейта : Постоянный
Битрейт : 384 Кбит/сек
Каналы : 6 каналов
Расположение каналов : Front: L C R, Side: L R, LFE
Частота : 48,0 КГц
Битовая глубина : 16 бит
Метод сжатия : С потерями
Размер потока : 272 Мбайт (18%)
Заголовок : Дублированный
Язык : Russian
Default : Да
Forced : Нет

Аудио #2
Идентификатор : 3
Формат : AC-3
Формат/Информация : Audio Coding 3
Расширение режима : CM (complete main)
Идентификатор кодека : A_AC3
Продолжительность : 1 ч. 39 м.
Вид битрейта : Постоянный
Битрейт : 192 Кбит/сек
Каналы : 2 канала
Расположение каналов : Front: L R
Частота : 48,0 КГц
Битовая глубина : 16 бит
Метод сжатия : С потерями
Размер потока : 136 Мбайт (9%)
Заголовок : Оригинал
Язык : English
Default : Нет
Forced : Нет

Текст #1
Идентификатор : 4
Формат : UTF-8
Идентификатор кодека : S_TEXT/UTF8
Идентификатор кодека/Информация : UTF-8 Plain Text
Язык : Russian
Default : Да
Forced : Нет

Текст #2
Идентификатор : 5
Формат : UTF-8
Идентификатор кодека : S_TEXT/UTF8
Идентификатор кодека/Информация : UTF-8 Plain Text
Язык : English
Default : Нет
Forced : Нет



Скачать 50.первых.поцелуев.50.First.Dates.(Питер.Сигал).[2004.мелодрама.комедия.BDRip-AVC].[Dub]+[Оригинал]+[Sub].torrent без регистрации
Золото ЗОЛОТАЯ РАЗДАЧА! СКАЧАННОЕ НЕ ЗАСЧИТЫВАЕТСЯ! Золото
Дата: Зарегистрирован   [ Тип: внутренний ] Как тут cкачать?
MAGNET ссылка
MAGNET ссылка


Скачать .torrent

15 KB

Статус: проверено DHT
Скачан: торрент - 188 раз, раздача полностью - 161 раз
Размер: 1,45 GB
Оценка:  5 (Голосов: 1)
Поблагодарили: 7
Поделиться ссылкой на эту раздачу с друзьями:
В контактеFacebookОдноклассникиTwitterLivejournalМой МирLiveinternet
 

 
Показать сообщения:    


Вы не можете начинать темы
Вы не можете отвечать на сообщения
Вы не можете редактировать свои сообщения
Вы не можете удалять свои сообщения
Вы не можете голосовать в опросах
Вы не можете прикреплять файлы к сообщениям
Вы можете скачивать файлы