Loading...
Error

Скачать Паранорман, или Как приручить зомби / ParaNorman (Крис Батлер, Сэм Фелл) [2012, мультфильм, ужасы, фэнтези, комедия, приключения, семейный, BDRip] [720p] [Dub] торрент без регистрации

Статистика раздачи
Размер:  2,66 GB   |    Скачан:  380 раз
Сидов:  1  [  0 KB/s  ]  
 
 
 
Автор Сообщение

МихаНЕзатор

[] 

Паранорман, или Как приручить зомби / ParaNorman (2012)
BDRip 720p от DHT-Movies

Название: Паранорман, или Как приручить зомби
Оригинальное название: ParaNorman
Год выхода: 2012
Жанр: мультфильм, ужасы, фэнтези, комедия, приключения, семейный
Режиссер: Крис Батлер, Сэм Фелл

В ролях:

Коди Смит-МакФи, Таккер Албрицци, Анна Кендрик, Кейси Аффлек, Кристофер Минц-Плассе, Лесли Манн, Джефф Гарлин, Илэйн Стритч, Бернард Хилл, Джоделль Ферланд

Описание:

Норман, Паранорман. Единственная надежда полусонного городка в борьбе с полчищами нечисти. Его оружие супер-мега-дар: умение общаться с призраками. Впрочем, мертвецы не главная опасность, куда хуже глупые взрослые с дробовиками наперевес.
Страна: США
Продолжительность: 01:32:15
Перевод: Дубляж (Профессиональный[Лицензия]) + Оригинал (Английский)
Субтитры: Русские UTF-8 (full)

Релиз группа: | by AVT83
Качество: BDRip 720p |ParaNorman 2012 1080p Blu-Ray AVC DTS-HD MA 5.1-HDChina
Формат: MKV
Видео кодек: H.264
Видео: 1280x536/2.40:1/23.976 fps/3 298 Kbps/0.200 Bits/(Pixel*Frame)
Аудио (Русский): 48 kHz, AC3 Dolby Digital, 3/2 (L,C,R,l,r) + LFE ch, ~ 384 kbps avg | ( Дубляж)
Аудио (Английский): 48 kHz, AC3 Dolby Digital, 3/2 (L,C,R,l,r) + LFE ch, ~ 448 kbps avg | (Оригинал)


--------------------------------------------------------------------------------
Format : Matroska
Format version : Version 2
File size : 2.66 GiB
Duration : 1h 32mn
Overall bit rate : 4 132 Kbps
Encoded date : UTC 2012-12-05 14:34:52
Writing application : mkvmerge v4.0.0 ('The Stars were mine') built on Jun 6 2010 16:18:42
Writing library : libebml v1.0.0 + libmatroska v1.0.0

Video
ID : 1
Format : AVC
Format/Info : Advanced Video Codec
Format profile : High@L4.1
Format settings, CABAC : Yes
Format settings, ReFrames : 12 frames
Codec ID : V_MPEG4/ISO/AVC
Duration : 1h 32mn
Bit rate : 3 298 Kbps
Width : 1 280 pixels
Height : 536 pixels
Display aspect ratio : 2.40:1
Frame rate : 23.976 fps
Color space : YUV
Chroma subsampling : 4:2:0
Bit depth : 8 bits
Scan type : Progressive
Bits/(Pixel*Frame) : 0.200
Stream size : 2.07 GiB (78%)
Writing library : x264 core 119 r2106 07efeb4
Encoding settings : cabac=1 / ref=12 / deblock=1:-1:-1 / analyse=0x3:0x113 / me=umh / subme=11 / psy=1 / psy_rd=0.85:0.05 / mixed_ref=1 / me_range=32 / chroma_me=1 / trellis=2 / 8x8dct=1 / cqm=0 / deadzone=21,11 / fast_pskip=0 / chroma_qp_offset=-3 / threads=6 / sliced_threads=0 / nr=0 / decimate=0 / interlaced=0 / bluray_compat=0 / constrained_intra=0 / bframes=10 / b_pyramid=2 / b_adapt=2 / b_bias=0 / direct=3 / weightb=1 / open_gop=0 / weightp=2 / keyint=250 / keyint_min=24 / scenecut=40 / intra_refresh=0 / rc_lookahead=45 / rc=2pass / mbtree=1 / bitrate=3298 / ratetol=1.0 / qcomp=0.70 / qpmin=0 / qpmax=69 / qpstep=4 / cplxblur=20.0 / qblur=0.5 / ip_ratio=1.40 / aq=1:1.00
Language : English
Default : No
Forced : No

Audio #1
ID : 2
Format : AC-3
Format/Info : Audio Coding 3
Mode extension : CM (complete main)
Format settings, Endianness : Big
Codec ID : A_AC3
Duration : 1h 32mn
Bit rate mode : Constant
Bit rate : 384 Kbps
Channel(s) : 6 channels
Channel positions : Front: L C R, Side: L R, LFE
Sampling rate : 48.0 KHz
Bit depth : 16 bits
Compression mode : Lossy
Stream size : 253 MiB (9%)
Title : Дубляж
Language : Russian
Default : No
Forced : No

Audio #2
ID : 3
Format : AC-3
Format/Info : Audio Coding 3
Mode extension : CM (complete main)
Format settings, Endianness : Big
Codec ID : A_AC3
Duration : 1h 32mn
Bit rate mode : Constant
Bit rate : 448 Kbps
Channel(s) : 6 channels
Channel positions : Front: L C R, Side: L R, LFE
Sampling rate : 48.0 KHz
Bit depth : 16 bits
Compression mode : Lossy
Stream size : 296 MiB (11%)
Title : Оригинал
Language : English
Default : Yes
Forced : No

Text
ID : 4
Format : UTF-8
Codec ID : S_TEXT/UTF8
Codec ID/Info : UTF-8 Plain Text
Title : full
Language : Russian
Default : Yes
Forced : No



Скачать Паранорман.или.Как.приручить.зомби.ParaNorman.(Крис.Батлер.Сэм.Фелл).[2012.мультфильм.ужасы.фэнтези.комедия.приключения.семейный.BDRip].[720p].[Dub].torrent без регистрации
Золото ЗОЛОТАЯ РАЗДАЧА! СКАЧАННОЕ НЕ ЗАСЧИТЫВАЕТСЯ! Золото
Дата: Зарегистрирован   [ Тип: внутренний ] Как тут cкачать?
MAGNET ссылка
MAGNET ссылка


Скачать .torrent

14 KB

Статус: проверено DHT
Скачан: торрент - 380 раз, раздача полностью - 631 раз
Размер: 2,66 GB
Оценка:  5 (Голосов: 2)
Поблагодарили: 8
Поделиться ссылкой на эту раздачу с друзьями:
В контактеFacebookОдноклассникиTwitterLivejournalМой МирLiveinternet
 

 
Показать сообщения:    


Вы не можете начинать темы
Вы не можете отвечать на сообщения
Вы не можете редактировать свои сообщения
Вы не можете удалять свои сообщения
Вы не можете голосовать в опросах
Вы не можете прикреплять файлы к сообщениям
Вы можете скачивать файлы