Loading...
Error

Скачать Выпускник / The Graduate (Майк Николс, Лоренс Турман) [1967, драма, мелодрама, комедия, BDRip] [1080p] [DVO]+[AVO]x2+[Оригинал]+[Sub] торрент без регистрации

Статистика раздачи
Размер:  9,33 GB   |    Скачан:  123 раза
Сидов:  1  [  0 KB/s  ]  
 
 
 
Автор Сообщение

Marsianka

[] 

Название: Выпускник
Оригинальное название: The Graduate
Год выпуска: 1967
Жанр: драма, мелодрама, комедия
Выпущено: США, Embassy Pictures Corporation
Режиссер: Майк Николс, Лоренс Турман
В ролях: Энн Бэнкрофт, Дастин Хоффман, Кэтрин Росс, Уильям Дэниелс, Мюррэй Хэмилтон, Элизабет Уилсон, Бак Генри, Брайан Эйври, Уолтер Брук, Норман Фелл, Элис Гостли, Мэрион Лорн, Эддра Гэйл, Бадди Дуглас, Ричард Дрейфусс, Майк Фаррелл, Элизабет Фрайзер, Гарри Холкомб, Джонатан Хоул, Лэйни Миллер, Бен Мерфи, Ноам Питлик, Кевин Тай

О фильме: После окончания колледжа в дом своих родителей в Лос-Анджелесе возвращается Бенджамен Брэддок. Начинается бесконечная череда дружеских визитов. Все хотят посмотреть на выпускника! На одном из приёмов Бен знакомится с приятельницей своих родителей элегантной дамой бальзаковского возраста миссис Робинсон. Влюбившись в юношу, она начинает преследовать его. Загнанный в угол, Бен вступает с ней в интимную связь. Робкий, неуклюжий, безвольный Бен покорно несёт свой крест, пока сам не влюбляется в дочь миссис Робинсон. Узнав об их любви, мать девушки превращается в «мстительную ведьму».



Качество: BDRip 1080p
Размер: 9.33 ГБ
Продолжительность: 01:45:55

Видео: MPEG-4 AVC, 9886 Кбит/с, 1918x814
[spoiler="Звук"b]Аудио 1:[/b] русский, 48 kHz, AC3, 6 ch, 448 kbps avg, [Профессиональный двухголосый]
Аудио 2: русский, 48 kHz, AC3, 2 ch, 256 kbps avg, Алексей Михалёв [Авторский]
Аудио 3: русский, 48 kHz, AC3, 2 ch, 256 kbps avg, Пётр Карцев [Авторский]
Аудио 4: английский, 48 kHz, DTS, 6 ch, 1509 kbps avg, [Оригинал]
Субтитры: русские
Субтитры: английские[/spoiler]
«Грэмми» в 1969 году за музыку к фильму (Дейв Грузин и Пол Саймон), включён в 1996 году в Национальный регистр фильмов.

Британская академия, 1969 год
Победитель (5):
Лучший фильм
Лучший режиссер (Майк Николс)
Лучший сценарий
Лучший монтаж
Лучший новичок (Дастин Хоффман)

Номинации (2):
Лучшая женская роль (Энн Бэнкрофт)
Лучший новичок (Кэтрин Росс)

Оскар, 1968 год
Победитель (1):
Лучший режиссер (Майк Николс)

Номинации (6):
Лучший фильм
Лучшая мужская роль (Дастин Хоффман)
Лучшая женская роль (Энн Бэнкрофт)
Лучшая женская роль второго плана (Кэтрин Росс)
Лучший адаптированный сценарий
Лучшая работа оператора

Золотой глобус, 1968 год
Победитель (5):
Лучшая женская роль (комедия или мюзикл) (Энн Бэнкрофт)
Лучший фильм (комедия или мюзикл)
Лучший режиссер (Майк Николс)
Самый многообещающий новичок среди мужчин (Дастин Хоффман)
Самый многообещающий новичок среди женщин (Кэтрин Росс)

Номинации (2):
Лучшая мужская роль (комедия или мюзикл) (Дастин Хоффман)
Лучший сценарий
---[Information] [02.07.2013 22:12:46] avs [info]: 1918x814p 1:1 @ 24000/1001 fps (cfr)
---[Information] [02.07.2013 22:12:46] x264 [info]: using SAR=1/1
---[Information] [02.07.2013 22:12:46] x264 [info]: using cpu capabilities: MMX2 SSE2Fast SSSE3 SSE4.2
---[Information] [02.07.2013 22:12:46] x264 [info]: profile High, level 4.1
---[Information] [03.07.2013 15:13:26] x264 [info]: frame I:761 Avg QP:19.66 size:149121
---[Information] [03.07.2013 15:13:26] x264 [info]: frame P:26094 Avg QP:20.79 size: 93532
---[Information] [03.07.2013 15:13:26] x264 [info]: frame B:125521 Avg QP:22.77 size: 43791
---[Information] [03.07.2013 15:13:26] x264 [info]: consecutive B-frames: 0.8% 0.8% 2.4% 8.5% 7.9% 46.7% 10.4% 13.4% 9.1%
---[Information] [03.07.2013 15:13:26] x264 [info]: mb I I16..4: 5.1% 90.4% 4.6%
---[Information] [03.07.2013 15:13:26] x264 [info]: mb P I16..4: 0.7% 28.4% 0.7% P16..4: 36.2% 24.8% 8.4% 0.0% 0.0% skip: 0.8%
---[Information] [03.07.2013 15:13:26] x264 [info]: mb B I16..4: 0.1% 2.9% 0.1% B16..8: 51.6% 14.7% 3.0% direct:11.8% skip:15.8% L0:46.3% L1:43.6% BI:10.0%
---[Information] [03.07.2013 15:13:26] x264 [info]: 8x8 transform intra:95.1% inter:74.5%
---[Information] [03.07.2013 15:13:26] x264 [info]: coded y,uvDC,uvAC intra: 97.4% 69.4% 22.1% inter: 52.7% 35.4% 0.5%
---[Information] [03.07.2013 15:13:26] x264 [info]: i16 v,h,dc,p: 35% 9% 17% 39%
---[Information] [03.07.2013 15:13:26] x264 [info]: i8 v,h,dc,ddl,ddr,vr,hd,vl,hu: 8% 7% 9% 10% 13% 13% 13% 12% 13%
---[Information] [03.07.2013 15:13:26] x264 [info]: i4 v,h,dc,ddl,ddr,vr,hd,vl,hu: 9% 8% 2% 9% 15% 16% 16% 12% 14%
---[Information] [03.07.2013 15:13:26] x264 [info]: i8c dc,h,v,p: 35% 28% 25% 13%
---[Information] [03.07.2013 15:13:26] x264 [info]: Weighted P-Frames: Y:9.5% UV:4.6%
---[Information] [03.07.2013 15:13:26] x264 [info]: ref P L0: 40.6% 11.2% 22.6% 12.8% 11.4% 1.3% 0.0%
---[Information] [03.07.2013 15:13:26] x264 [info]: ref B L0: 71.1% 20.4% 7.0% 1.5%
---[Information] [03.07.2013 15:13:26] x264 [info]: ref B L1: 89.3% 10.7%
---[Information] [03.07.2013 15:13:26] x264 [info]: kb/s:10134.20
---[Information] [03.07.2013 15:13:26] encoded 152376 frames, 2.49 fps, 10134.20 kb/s
--[Information] [03.07.2013 15:13:28] Final statistics
---[Information] [03.07.2013 15:13:28] Constant Quality Mode: Quality 20 computed...
---[Information] [03.07.2013 15:13:28] Video Bitrate Obtained (approximate): 10135 kbit/s
--[Information] [03.07.2013 15:13:28] MediaInfo
---[Information] File: E:RipVypusknik.1967.x264.BDRipVypusknik.1967.x264.BDRIP.1080p.mkv
Общее
Уникальный идентификатор : 208868360928838265079761696317348106617 (0x9D22954463BF4EFD8CEB84FFF7BDD179)
Полное имя : E:VideoVypusknik.1967.x264.BDRip.1080p.mkv
Формат : Matroska
Версия формата : Version 4 / Version 2
Размер файла : 9,33 Гбайт
Продолжительность : 1 ч. 45 м.
Общий поток : 12,6 Мбит/сек
Название фильма : Выпускник / The Graduate / 1967 / BDRip -- STarankov
Дата кодирования : UTC 2013-07-03 08:52:46
Программа кодирования : mkvmerge v6.3.0 ('You can't stop me!') built on Jun 28 2013 20:09:41
Библиотека кодирования : libebml v1.3.0 + libmatroska v1.4.0

Видео
Идентификатор : 1
Формат : AVC
Формат/Информация : Advanced Video Codec
Профиль формата : High@L4.1
Параметр CABAC формата : Да
Параметр ReFrames формата : 5 кадров
Идентификатор кодека : V_MPEG4/ISO/AVC
Продолжительность : 1 ч. 45 м.
Битрейт : 9886 Кбит/сек
Ширина : 1918 пикселей
Высота : 814 пикселей
Соотношение сторон : 2,35:1
Режим частоты кадров : Постоянный
Частота кадров : 23,976 кадра/сек
Цветовое пространство : YUV
Субдискретизация насыщенности : 4:2:0
Битовая глубина : 8 бит
Тип развёртки : Прогрессивная
Бит/(Пиксели*Кадры) : 0.264
Размер потока : 7,31 Гбайт (78%)
Библиотека кодирования : x264 core 133 r2334 a3ac64b
Настройки программы : cabac=1 / ref=5 / deblock=1:-1:-1 / analyse=0x3:0x113 / me=umh / subme=10 / psy=1 / psy_rd=1.00:0.15 / mixed_ref=1 / me_range=24 / chroma_me=1 / trellis=2 / 8x8dct=1 / cqm=0 / deadzone=21,11 / fast_pskip=0 / chroma_qp_offset=-3 / threads=6 / lookahead_threads=1 / sliced_threads=0 / nr=0 / decimate=1 / interlaced=0 / bluray_compat=0 / constrained_intra=0 / bframes=8 / b_pyramid=2 / b_adapt=2 / b_bias=0 / direct=1 / weightb=0 / open_gop=0 / weightp=2 / keyint=230 / keyint_min=23 / scenecut=40 / intra_refresh=0 / rc_lookahead=60 / rc=crf / mbtree=0 / crf=20.0 / qcomp=0.60 / qpmin=0 / qpmax=69 / qpstep=4 / vbv_maxrate=50000 / vbv_bufsize=62500 / crf_max=0.0 / nal_hrd=none / ip_ratio=1.40 / pb_ratio=1.30 / aq=1:1.00
Язык : English
Default : Да
Forced : Нет

Аудио #1
Идентификатор : 2
Формат : AC-3
Формат/Информация : Audio Coding 3
Расширение режима : CM (complete main)
Параметр Endianness формата : Big
Идентификатор кодека : A_AC3
Продолжительность : 1 ч. 45 м.
Вид битрейта : Постоянный
Битрейт : 448 Кбит/сек
Каналы : 6 каналов
Расположение каналов : Front: L C R, Side: L R, LFE
Частота : 48,0 КГц
Битовая глубина : 16 бит
Метод сжатия : С потерями
Размер потока : 339 Мбайт (4%)
Заголовок : DVO
Язык : Russian
Default : Да
Forced : Нет

Аудио #2
Идентификатор : 3
Формат : AC-3
Формат/Информация : Audio Coding 3
Расширение режима : CM (complete main)
Параметр Endianness формата : Big
Идентификатор кодека : A_AC3
Продолжительность : 1 ч. 45 м.
Вид битрейта : Постоянный
Битрейт : 256 Кбит/сек
Каналы : 2 канала
Расположение каналов : Front: L R
Частота : 48,0 КГц
Битовая глубина : 16 бит
Метод сжатия : С потерями
Размер потока : 194 Мбайт (2%)
Заголовок : AVO (Алексей Михалёв)
Язык : Russian
Default : Нет
Forced : Нет

Аудио #3
Идентификатор : 4
Формат : AC-3
Формат/Информация : Audio Coding 3
Расширение режима : CM (complete main)
Параметр Endianness формата : Big
Идентификатор кодека : A_AC3
Продолжительность : 1 ч. 45 м.
Вид битрейта : Постоянный
Битрейт : 256 Кбит/сек
Каналы : 2 канала
Расположение каналов : Front: L R
Частота : 48,0 КГц
Битовая глубина : 16 бит
Метод сжатия : С потерями
Размер потока : 194 Мбайт (2%)
Заголовок : AVO (Пётр Карцев)
Язык : Russian
Default : Нет
Forced : Нет

Аудио #4
Идентификатор : 5
Формат : DTS
Формат/Информация : Digital Theater Systems
Режим : 16
Параметр Endianness формата : Big
Идентификатор кодека : A_DTS
Продолжительность : 1 ч. 45 м.
Вид битрейта : Постоянный
Битрейт : 1509 Кбит/сек
Каналы : 6 каналов
Расположение каналов : Front: L C R, Side: L R, LFE
Частота : 48,0 КГц
Битовая глубина : 24 бит
Метод сжатия : С потерями
Размер потока : 1,12 Гбайт (12%)
Заголовок : Original
Язык : English
Default : Нет
Forced : Нет

Текст #1
Идентификатор : 6
Формат : UTF-8
Идентификатор кодека : S_TEXT/UTF8
Идентификатор кодека/Информация : UTF-8 Plain Text
Заголовок : русский
Язык : Russian
Default : Нет
Forced : Нет

Текст #2
Идентификатор : 7
Формат : UTF-8
Идентификатор кодека : S_TEXT/UTF8
Идентификатор кодека/Информация : UTF-8 Plain Text
Заголовок : английский
Default : Нет
Forced : Нет



Скачать Выпускник.The.Graduate.(Майк.Николс.Лоренс.Турман).[1967.драма.мелодрама.комедия.BDRip].[1080p].[DVO]+[AVO]x2+[Оригинал]+[Sub].torrent без регистрации
Золото ЗОЛОТАЯ РАЗДАЧА! СКАЧАННОЕ НЕ ЗАСЧИТЫВАЕТСЯ! Золото
Дата: Зарегистрирован   [ Тип: внутренний ] Как тут cкачать?
MAGNET ссылка
MAGNET ссылка


Скачать .torrent

24 KB

Статус: проверено DHT
Скачан: торрент - 123 раз, раздача полностью - 6 раз
Размер: 9,33 GB
Оценка:  - (Голосов: 0)
Поблагодарили: 3
Поделиться ссылкой на эту раздачу с друзьями:
В контактеFacebookОдноклассникиTwitterLivejournalМой МирLiveinternet
 

 
Показать сообщения:    


Вы не можете начинать темы
Вы не можете отвечать на сообщения
Вы не можете редактировать свои сообщения
Вы не можете удалять свои сообщения
Вы не можете голосовать в опросах
Вы не можете прикреплять файлы к сообщениям
Вы можете скачивать файлы