Loading...
Error

Скачать Водный мир / Waterworld (Кевин Рейнольдс, Кевин Костнер) [1995, фантастика, боевик, приключения, BDRip] [1080p] [DVO]+[MVO]+[Оригинал]+[Sub] торрент без регистрации

Статистика раздачи
Размер:  11,54 GB   |    Скачан:  180 раз
Сидов:  1  [  0 KB/s  ]  
 
 
 
Автор Сообщение

Marsianka

[] 

Информация о фильме
Название: Водный мир
Оригинальное название: Waterworld
Год выхода: 1995
Жанр: фантастика, боевик, приключения
Режиссер: Кевин Рейнольдс, Кевин Костнер
В ролях: Кевин Костнер, Деннис Хоппер, Джинн Трипплхорн, Тина Мажорино, Майкл Джитер, Джек Блэк, Ким Коутс, Чайм Джирафи, Рик Авилес, Р.Д. Колл

О фильме:
В далеком будущем полярные снега растаяли, покрыв всю Землю водой. Авторы погружают нас в фантастический мир немногочисленных людей, живущих на воде, где самым дорогим являются пресная вода, земля, еда, сигареты и т. п.
«Курильщики» убивают, грабят, обращают в рабство используют двигатели внутреннего сгорания. Все остальные пытаются выжить, кто как может, а Кевин Костнер плавает сам по себе на своей фантастической лодке, но объединяет их всех одно все они ищут остров.
В одной из колоний живут очень красивая женщина и девочка с татуировкой на спине. А татуировка эта часть карты, на которой и указан этот остров. Естественно, за ней и охотятся «курильщики»



Страна: США
Продолжительность: 02:15:11
Перевод: Профессиональный (двухголосый закадровый) Премьер Видео Фильм, Профессиональный (многоголосый закадровый) Киномания

Файл
Кодек: x264
Качество: BDRip (источник: BD Remux)
Видео: 1920x1040 (1,85:1), 23.976 fps, 10550 kbps
Аудио #1: AC-3, 6 ch, 640 kbps (Rus) DVO Премьер Видео Фильм
Аудио #2: AC-3, 6 ch, 384 kbps (Rus) MVO Киномания
Аудио #3: AC-3, 6 ch, 640 kbps (Eng) Original
Субтитры: Русские, английские. (PGS)
Общее
Уникальный идентификатор : 203273388566233718676582737890282179638 (0x98ED07D4FCBAD1C3ABB3F9B5F53E0C36)
Полное имя : E:Waterworld.1995.BDRip.1080p.Rus.Eng.mkv
Формат : Matroska
Версия формата : Version 2
Размер файла : 11,5 Гбайт
Продолжительность : 2 ч. 15 м.
Общий поток : 12,2 Мбит/сек
Название фильма : Водный мир (Waterworld) 1995
Дата кодирования : UTC 2013-02-14 07:24:06
Программа кодирования : mkvmerge v5.8.0 ('No Sleep / Pillow') built on Sep 2 2012 15:37:04
Библиотека кодирования : libebml v1.2.3 + libmatroska v1.3.0

Видео
Идентификатор : 1
Формат : AVC
Формат/Информация : Advanced Video Codec
Профиль формата : High@L4.1
Параметр CABAC формата : Да
Параметр ReFrames формата : 4 кадра
Идентификатор кодека : V_MPEG4/ISO/AVC
Продолжительность : 2 ч. 15 м.
Битрейт : 10,6 Мбит/сек
Ширина : 1920 пикселей
Высота : 1040 пикселей
Соотношение сторон : 1,85:1
Режим частоты кадров : Постоянный
Частота кадров : 23,976 кадра/сек
Цветовое пространство : YUV
Субдискретизация насыщенности : 4:2:0
Битовая глубина : 8 бит
Тип развёртки : Прогрессивная
Бит/(Пиксели*Кадры) : 0.220
Размер потока : 9,74 Гбайт (84%)
Библиотека кодирования : x264 core 128 r2216M 198a7ea
Настройки программы : cabac=1 / ref=4 / deblock=1:-2:-1 / analyse=0x3:0x133 / me=umh / subme=10 / psy=1 / psy_rd=1.00:0.00 / mixed_ref=1 / me_range=32 / chroma_me=1 / trellis=2 / 8x8dct=1 / cqm=0 / deadzone=21,11 / fast_pskip=0 / chroma_qp_offset=-2 / threads=4 / lookahead_threads=1 / sliced_threads=0 / nr=0 / decimate=0 / interlaced=0 / bluray_compat=0 / constrained_intra=0 / bframes=9 / b_pyramid=2 / b_adapt=2 / b_bias=0 / direct=3 / weightb=1 / open_gop=0 / weightp=2 / keyint=240 / keyint_min=23 / scenecut=40 / intra_refresh=0 / rc=2pass / mbtree=0 / bitrate=10550 / ratetol=1.0 / qcomp=0.60 / qpmin=10 / qpmax=69 / qpstep=4 / cplxblur=20.0 / qblur=0.5 / ip_ratio=1.40 / pb_ratio=1.30 / aq=1:1.00
Язык : English
Default : Да
Forced : Нет

Аудио #1
Идентификатор : 2
Формат : AC-3
Формат/Информация : Audio Coding 3
Расширение режима : CM (complete main)
Параметр Endianness формата : Big
Идентификатор кодека : A_AC3
Продолжительность : 2 ч. 15 м.
Вид битрейта : Постоянный
Битрейт : 640 Кбит/сек
Каналы : 6 каналов
Расположение каналов : Front: L C R, Side: L R, LFE
Частота : 48,0 КГц
Битовая глубина : 16 бит
Метод сжатия : С потерями
Размер потока : 619 Мбайт (5%)
Заголовок : DVO, AC3 5.1, 640 kbps
Язык : Russian
Default : Да
Forced : Нет

Аудио #2
Идентификатор : 3
Формат : AC-3
Формат/Информация : Audio Coding 3
Расширение режима : CM (complete main)
Параметр Endianness формата : Big
Идентификатор кодека : A_AC3
Продолжительность : 2 ч. 15 м.
Вид битрейта : Постоянный
Битрейт : 384 Кбит/сек
Каналы : 6 каналов
Расположение каналов : Front: L C R, Side: L R, LFE
Частота : 48,0 КГц
Битовая глубина : 16 бит
Метод сжатия : С потерями
Размер потока : 371 Мбайт (3%)
Заголовок : MVO, AC3 5.1, 384 kbps
Язык : Russian
Default : Нет
Forced : Нет

Аудио #3
Идентификатор : 4
Формат : AC-3
Формат/Информация : Audio Coding 3
Расширение режима : CM (complete main)
Параметр Endianness формата : Big
Идентификатор кодека : A_AC3
Продолжительность : 2 ч. 15 м.
Вид битрейта : Постоянный
Битрейт : 640 Кбит/сек
Каналы : 6 каналов
Расположение каналов : Front: L C R, Side: L R, LFE
Частота : 48,0 КГц
Битовая глубина : 16 бит
Метод сжатия : С потерями
Размер потока : 619 Мбайт (5%)
Заголовок : Original, AC3 5.1, 640 kbps
Язык : English
Default : Нет
Forced : Нет

Текст #1
Идентификатор : 5
Формат : PGS
Режим смешивания : zlib
Идентификатор кодека : S_HDMV/PGS
Идентификатор кодека/Информация : The same subtitle format used on BDs/HD-DVDs
Язык : Russian
Default : Нет
Forced : Нет

Текст #2
Идентификатор : 6
Формат : PGS
Режим смешивания : zlib
Идентификатор кодека : S_HDMV/PGS
Идентификатор кодека/Информация : The same subtitle format used on BDs/HD-DVDs
Язык : Russian
Default : Нет
Forced : Нет

Текст #3
Идентификатор : 7
Формат : PGS
Режим смешивания : zlib
Идентификатор кодека : S_HDMV/PGS
Идентификатор кодека/Информация : The same subtitle format used on BDs/HD-DVDs
Язык : English
Default : Нет
Forced : Нет

Меню
00:00:00.000 : en:Main Title: The New World
00:06:29.011 : en:Smokers!
00:09:56.051 : en:A Stranger in Town
00:25:33.864 : en:Dead Out of the Sun
00:53:20.739 : en:Smokers in the Sky
00:59:36.947 : en:Rough Trade
01:15:04.291 : en:The Barter Outpost
01:21:22.627 : en:Down to Dryland
01:25:18.238 : en:Going Under
01:39:30.255 : en:The Coming of the Marine
01:43:48.595 : en:No Mercy
01:49:08.041 : en:Smoke on the Water
01:55:18.536 : en:The Death of "the Deez"
01:57:06.394 : en:The Deacon's Last Shot
01:59:40.131 : en:Home
02:06:31.542 : en:End Titles
x264 [info]: frame I:1305 Avg QP:19.90 size:140581
x264 [info]: frame P:44116 Avg QP:21.74 size: 83289
x264 [info]: frame B:149055 Avg QP:23.42 size: 45809



Скачать Водный.мир.Waterworld.(Кевин.Рейнольдс.Кевин.Костнер).[1995.фантастика.боевик.приключения.BDRip].[1080p].[DVO]+[MVO]+[Оригинал]+[Sub].torrent без регистрации
Золото ЗОЛОТАЯ РАЗДАЧА! СКАЧАННОЕ НЕ ЗАСЧИТЫВАЕТСЯ! Золото
Дата: Зарегистрирован   [ Тип: внутренний ] Как тут cкачать?
MAGNET ссылка
MAGNET ссылка


Скачать .torrent

29 KB

Статус: проверено DHT
Скачан: торрент - 180 раз, раздача полностью - 122 раз
Размер: 11,54 GB
Оценка:  4,8 (Голосов: 4)
Поблагодарили: 8
Поделиться ссылкой на эту раздачу с друзьями:
В контактеFacebookОдноклассникиTwitterLivejournalМой МирLiveinternet
 

 
Показать сообщения:    


Вы не можете начинать темы
Вы не можете отвечать на сообщения
Вы не можете редактировать свои сообщения
Вы не можете удалять свои сообщения
Вы не можете голосовать в опросах
Вы не можете прикреплять файлы к сообщениям
Вы можете скачивать файлы