Loading...
Error

Скачать Рождественский гимн / A Christmas Carol (Эдвин Л. Марин) [1938, драма, фэнтези, семейный, WEB-DL] [720p] [Оригинал]+[Sub] торрент без регистрации

Статистика раздачи
Размер:  2,09 GB   |    Скачан:  124 раза
Сидов:  1  [  0 KB/s  ]  
 
 
 
Автор Сообщение

Marsianka

[] 

Информация о фильме
Название: Рождественский гимн
Оригинальное название: A Christmas Carol
Год выхода: 1938
Жанр: драма, фэнтези, семейный
Режиссер: Эдвин Л. Марин
В ролях: Реджинальд Оуэн, Жене Локхарт, Кэтлин Локхарт, Терри Килбурн, Барри МакКей, Линн Карвер, Лео Г. Каррол, Лайнел Брехэм, Енн Рузерфорд, Д'Арчи Корриган, Рональд Синклер

О фильме:
У Скруджа нет друзей, он отказался даже от единственного родственника племянника Фреда, и ко всем относится с презрением. Он терпеть не может Рождество, считая эту пору пустой тратой денег и времени, и очень неохотно даёт своему клерку Бобу Крэтчиту свободный день в праздник. Но в сочельник к нему приходит призрак старого умершего компаньона Джейкоба Марли, который заклинает его изменить свою жизнь. Марли предупреждает о приходе трёх духов, которые и покажут старому упрямцу Скруджу его жизнь и жизнь окружающих людей в истинном свете. Уроки духов не проходят даром.



Страна: США
Студия: Loew's Inc., Metro-Goldwyn-Mayer (MGM)
Продолжительность: 01:09:11
Язык: английский (оригинал)
Перевод: субтитры

Файл
Кодек: MKV, H.264
Качество: WEB-DL 720p
Видео: h264 (High), 986x720, 4043 kbps, 23.976 fps
Звук: AC3, 48000 Hz, stereo, fltp, 192 kb/s
Субтитры: русские от Family Media + английские (внешние) | SRT

Format : Matroska
Format version : Version 4 / Version 2
File size : 2.09 GiB
Duration : 1h 9mn
Overall bit rate : 4 321 Kbps
Encoded date : UTC 2013-07-21 22:11:20
Writing application : mkvmerge v6.1.0 ('Old Devil') built on Apr 10 2013 23:17:18
Writing library : libebml v1.3.0 + libmatroska v1.4.0

Video
ID : 1
Format : AVC
Format/Info : Advanced Video Codec
Format profile : High@L3.1
Format settings, CABAC : No
Format settings, ReFrames : 2 frames
Codec ID : V_MPEG4/ISO/AVC
Duration : 1h 9mn
Bit rate : 4 043 Kbps
Width : 986 pixels
Height : 720 pixels
Display aspect ratio : 4:3
Frame rate mode : Constant
Frame rate : 23.976 fps
Color space : YUV
Chroma subsampling : 4:2:0
Bit depth : 8 bits
Scan type : Progressive
Bits/(Pixel*Frame) : 0.238
Stream size : 1.95 GiB (94%)
Language : English
Default : Yes
Forced : No
Color primaries : BT.709
Transfer characteristics : BT.709
Matrix coefficients : BT.709

Audio
ID : 2
Format : AC-3
Format/Info : Audio Coding 3
Mode extension : CM (complete main)
Format settings, Endianness : Big
Codec ID : A_AC3
Duration : 1h 9mn
Bit rate mode : Constant
Bit rate : 192 Kbps
Channel(s) : 2 channels
Channel positions : Front: L R
Sampling rate : 48.0 KHz
Bit depth : 16 bits
Compression mode : Lossy
Stream size : 95.0 MiB (4%)
Language : English
Default : Yes
Forced : No
Релиз от:



Скачать Рождественский.гимн.A.Christmas.Carol.(Эдвин.Л.Марин).[1938.драма.фэнтези.семейный.WEB-DL].[720p].[Оригинал]+[Sub].torrent без регистрации
Золото ЗОЛОТАЯ РАЗДАЧА! СКАЧАННОЕ НЕ ЗАСЧИТЫВАЕТСЯ! Золото
Дата: Зарегистрирован   [ Тип: внутренний ] Как тут cкачать?
MAGNET ссылка
MAGNET ссылка


Скачать .torrent

44 KB

Статус: проверено DHT
Скачан: торрент - 124 раз, раздача полностью - 0 раз
Размер: 2,09 GB
Оценка:  - (Голосов: 0)
Поблагодарили: 2
Поделиться ссылкой на эту раздачу с друзьями:
В контактеFacebookОдноклассникиTwitterLivejournalМой МирLiveinternet
 

 
Показать сообщения:    


Вы не можете начинать темы
Вы не можете отвечать на сообщения
Вы не можете редактировать свои сообщения
Вы не можете удалять свои сообщения
Вы не можете голосовать в опросах
Вы не можете прикреплять файлы к сообщениям
Вы можете скачивать файлы