Loading...
Error

Скачать Ледяной ветер / The Ice Storm (Энг Ли) [1997, драма, BDRip] [720p] [DVO]+[AVO]+[Оригинал]+[Sub] торрент без регистрации

Статистика раздачи
Размер:  4,07 GB   |    Скачан:  127 раз
Сидов:  1  [  0 KB/s  ]  
 
 
 
Автор Сообщение

Marsianka

[] 

Название: Ледяной ветер
Оригинальное название: The Ice Storm
Год выпуска: 1997
Жанр: драма
Выпущено: США, Canal+ Droits Audiovisuels, Fox Searchlight Pictures, Good Machine
Режиссер: Энг Ли
В ролях: Кевин Клайн, Джоан Аллен, Сигурни Уивер, Генри Черни, Тоби Магуайр, Кристина Риччи, Элайджа Вуд, Адам Хэнн-Берд, Дэвид Крамхолц, Джейми Шеридан, Кейт Бёртон, Уильям Кэйн, Майкл Кампсти, Майа Дэнзигер, Кэти Холмс, Майкл Эгерман, Кристин Фаррелл, Гленн Фицджералд, Эллисон Джэнни, Джонатан Фриман, Барбара Гэррик, Дэннис Гагомирос, Джон Бенжамин Хикки, Том Флэгг, Байрон Дженнингс, Майлз Марек, Колетт Килрой, Иван Кроненфельд, Дэниэл МакДональд, Донна Митчелл, Барбара Нил, Нэнси Опель, Ларри Пайн, Сара Томпсон

О фильме: Существует ли в мире семья - счастливая на сто процентов? Вероятно, нет. Ничто на нашей бренной земле не совершенно. И каждому приходится своими способами искать и личное счастье, и жизненное благополучие На дворе 1973 год. Сексуальная революция в разгаре. Семейная пара, Бен и Елена, переживают переломный момент супружества. Глава семьи Бен спит с соседкой Джени, а его дочка Уэнди играет в сексуальные игры с соседскими ребятами сыновьями папиной любовницы. Елена подозревает мужа в измене. В канун Дня Благодарения погода внезапно портится, как и отношения всех героев. Приближается ледяной шторм, которому предстоит выступить судьёй в запутанной игре человеческих страстей



Качество: BDRip 720p
Размер: 4.07 ГБ
Продолжительность: 01:53:25

Видео: MPEG-4, 4449 Кбит/с, 1280x690
Аудио 1: русский, 48 kHz, AC3, 2 ch, 192 kbps avg, Ирма Стефанова, Кирилл Сафронов [Профессиональный двухголосый]
Аудио 2: русский, 48 kHz, AC3, 2 ch, 192 kbps avg, Юрий Сербин [Авторский]

Внешние файлы
Аудио: английский, 48 kHz, AC3, 2 ch, 192 kbps avg, [Оригинал]
Аудио: английский, 48 kHz, AC3, 2 ch, 192 kbps avg, [Комментарий]
Субтитры: русские
Субтитры: английские
Золотой глобус, 1998 год
Номинации (1):
Лучшая женская роль второго плана (Сигурни Уивер)

Британская академия, 1998 год
Победитель (1):
Лучшая женская роль второго плана (Сигурни Уивер)

Номинации (1):
Лучший адаптированный сценарий

Каннский кинофестиваль, 1997 год
Победитель (1):
Лучший сценарий

Номинации (1):
Золотая пальмовая ветвь
---[Information] [30.07.2013 7:32:53] avs [info]: 1280x690p 1:1 @ 24000/1001 fps (cfr)
---[Information] [30.07.2013 7:32:53] x264 [info]: using SAR=1/1
---[Information] [30.07.2013 7:32:53] x264 [info]: using cpu capabilities: MMX2 SSE2Fast SSSE3 SSE4.2
---[Information] [30.07.2013 7:32:53] x264 [info]: profile High, level 4.1
---[Information] [30.07.2013 17:58:48] x264 [info]: frame I:1125 Avg QP:16.20 size:112223
---[Information] [30.07.2013 17:58:51] x264 [info]: frame P:31067 Avg QP:19.00 size: 42048
---[Information] [30.07.2013 17:58:51] x264 [info]: frame B:130983 Avg QP:20.22 size: 17384
---[Information] [30.07.2013 17:58:51] x264 [info]: consecutive B-frames: 1.4% 1.6% 5.0% 6.9% 11.7% 61.8% 6.0% 2.1% 3.5%
---[Information] [30.07.2013 17:58:51] x264 [info]: mb I I16..4: 9.9% 77.5% 12.6%
---[Information] [30.07.2013 17:58:51] x264 [info]: mb P I16..4: 0.7% 14.3% 0.9% P16..4: 39.1% 26.8% 13.4% 0.0% 0.0% skip: 4.8%
---[Information] [30.07.2013 17:58:51] x264 [info]: mb B I16..4: 0.1% 1.1% 0.1% B16..8: 45.4% 13.6% 2.8% direct: 7.4% skip:29.5% L0:49.2% L1:42.9% BI: 7.9%
---[Information] [30.07.2013 17:58:51] x264 [info]: 8x8 transform intra:88.1% inter:56.1%
---[Information] [30.07.2013 17:58:51] x264 [info]: direct mvs spatial:99.4% temporal:0.6%
---[Information] [30.07.2013 17:58:51] x264 [info]: coded y,uvDC,uvAC intra: 93.2% 76.6% 44.2% inter: 35.1% 23.1% 4.3%
---[Information] [30.07.2013 17:58:51] x264 [info]: i16 v,h,dc,p: 42% 10% 23% 26%
---[Information] [30.07.2013 17:58:51] x264 [info]: i8 v,h,dc,ddl,ddr,vr,hd,vl,hu: 12% 8% 13% 9% 12% 12% 11% 11% 12%
---[Information] [30.07.2013 17:58:51] x264 [info]: i4 v,h,dc,ddl,ddr,vr,hd,vl,hu: 31% 7% 4% 7% 11% 12% 10% 9% 9%
---[Information] [30.07.2013 17:58:51] x264 [info]: i8c dc,h,v,p: 41% 26% 22% 11%
---[Information] [30.07.2013 17:58:51] x264 [info]: Weighted P-Frames: Y:3.8% UV:1.0%
---[Information] [30.07.2013 17:58:51] x264 [info]: ref P L0: 38.0% 9.7% 20.2% 7.7% 7.7% 5.1% 5.4% 2.8% 3.2% 0.2% 0.0%
---[Information] [30.07.2013 17:58:51] x264 [info]: ref B L0: 56.0% 16.2% 10.0% 6.0% 4.7% 4.2% 2.2% 0.7%
---[Information] [30.07.2013 17:58:51] x264 [info]: ref B L1: 88.5% 11.5%
---[Information] [30.07.2013 17:58:51] x264 [info]: kb/s:4360.50
---[Information] [30.07.2013 17:58:51] encoded 163175 frames, 4.35 fps, 4360.50 kb/s
--[Information] [30.07.2013 17:58:54] Final statistics
---[Information] [30.07.2013 17:58:54] Video Bitrate Desired: 4449 kbit/s
---[Information] [30.07.2013 17:58:54] Video Bitrate Obtained (approximate): 4362 kbit/s
--[Information] [30.07.2013 17:58:54] MediaInfo
---[Information] File: E:RipLedjanoj.veter.1997.x264.BDRipLedjanoj.veter.1997.x264.BDRip.720p.mkv
Общее
Полное имя : E:VideoLedjanoj.veter.1997.x264.BDRip.720pLedjanoj.veter.1997.Commentary.eng.ac3
Формат : AC-3
Формат/Информация : Audio Coding 3
Размер файла : 156 Мбайт
Продолжительность : 1 ч. 53 м.
Режим общего битрейта : Постоянный
Общий поток : 192 Кбит/сек

Аудио
Формат : AC-3
Формат/Информация : Audio Coding 3
Расширение режима : CM (complete main)
Параметр Endianness формата : Big
Продолжительность : 1 ч. 53 м.
Вид битрейта : Постоянный
Битрейт : 192 Кбит/сек
Каналы : 2 канала
Расположение каналов : Front: L R
Частота : 48,0 КГц
Битовая глубина : 16 бит
Метод сжатия : С потерями
Размер потока : 156 Мбайт (100%)

Общее
Полное имя : E:VideoLedjanoj.veter.1997.x264.BDRip.720pLedjanoj.veter.1997.eng.srt
Формат : SubRip
Размер файла : 95,2 Кбайт

Текст
Формат : SubRip
Метод сжатия : Без потерь

Общее
Полное имя : E:VideoLedjanoj.veter.1997.x264.BDRip.720pLedjanoj.veter.1997.Original.eng.ac3
Формат : AC-3
Формат/Информация : Audio Coding 3
Размер файла : 156 Мбайт
Продолжительность : 1 ч. 53 м.
Режим общего битрейта : Постоянный
Общий поток : 192 Кбит/сек

Аудио
Формат : AC-3
Формат/Информация : Audio Coding 3
Расширение режима : CM (complete main)
Параметр Endianness формата : Big
Продолжительность : 1 ч. 53 м.
Вид битрейта : Постоянный
Битрейт : 192 Кбит/сек
Каналы : 2 канала
Расположение каналов : Front: L R
Частота : 48,0 КГц
Битовая глубина : 16 бит
Метод сжатия : С потерями
Размер потока : 156 Мбайт (100%)

Общее
Полное имя : E:VideoLedjanoj.veter.1997.x264.BDRip.720pLedjanoj.veter.1997.rus.srt
Формат : SubRip
Размер файла : 92,8 Кбайт

Текст
Формат : SubRip
Метод сжатия : Без потерь

Общее
Уникальный идентификатор : 236285726042785203004480205593307489551 (0xB1C2F9BBCA67F2B5AB04D103C7AFA50F)
Полное имя : E:VideoLedjanoj.veter.1997.x264.BDRip.720pLedjanoj.veter.1997.x264.BDRip.720p.mkv
Формат : Matroska
Версия формата : Version 4 / Version 2
Размер файла : 3,76 Гбайт
Продолжительность : 1 ч. 53 м.
Общий поток : 4747 Кбит/сек
Название фильма : Ледяной ветер / The Ice Storm / 1997 / BDRip -- STarankov
Дата кодирования : UTC 2013-07-30 11:31:26
Программа кодирования : mkvmerge v6.3.0 ('You can't stop me!') built on Jun 28 2013 20:09:41
Библиотека кодирования : libebml v1.3.0 + libmatroska v1.4.0

Видео
Идентификатор : 1
Формат : AVC
Формат/Информация : Advanced Video Codec
Профиль формата : High@L4.1
Параметр CABAC формата : Да
Параметр ReFrames формата : 9 кадров
Идентификатор кодека : V_MPEG4/ISO/AVC
Продолжительность : 1 ч. 53 м.
Битрейт : 4449 Кбит/сек
Ширина : 1280 пикселей
Высота : 690 пикселей
Соотношение сторон : 1,85:1
Режим частоты кадров : Постоянный
Частота кадров : 23,976 кадра/сек
Цветовое пространство : YUV
Субдискретизация насыщенности : 4:2:0
Битовая глубина : 8 бит
Тип развёртки : Прогрессивная
Бит/(Пиксели*Кадры) : 0.210
Размер потока : 3,38 Гбайт (90%)
Библиотека кодирования : x264 core 135 r2345 f0c1c53
Настройки программы : cabac=1 / ref=9 / deblock=1:-1:-1 / analyse=0x3:0x113 / me=umh / subme=10 / psy=1 / psy_rd=1.00:0.15 / mixed_ref=1 / me_range=24 / chroma_me=1 / trellis=2 / 8x8dct=1 / cqm=0 / deadzone=21,11 / fast_pskip=0 / chroma_qp_offset=-3 / threads=6 / lookahead_threads=1 / sliced_threads=0 / nr=0 / decimate=0 / interlaced=0 / bluray_compat=0 / constrained_intra=0 / bframes=8 / b_pyramid=2 / b_adapt=2 / b_bias=0 / direct=3 / weightb=1 / open_gop=0 / weightp=2 / keyint=230 / keyint_min=23 / scenecut=40 / intra_refresh=0 / rc_lookahead=40 / rc=2pass / mbtree=0 / bitrate=4449 / ratetol=50.0 / qcomp=0.60 / qpmin=0 / qpmax=69 / qpstep=4 / cplxblur=20.0 / qblur=0.5 / vbv_maxrate=50000 / vbv_bufsize=62500 / nal_hrd=none / ip_ratio=1.40 / pb_ratio=1.30 / aq=1:1.00
Язык : English
Default : Да
Forced : Нет

Аудио #1
Идентификатор : 2
Формат : AC-3
Формат/Информация : Audio Coding 3
Расширение режима : CM (complete main)
Параметр Endianness формата : Big
Идентификатор кодека : A_AC3
Продолжительность : 1 ч. 53 м.
Вид битрейта : Постоянный
Битрейт : 192 Кбит/сек
Каналы : 2 канала
Расположение каналов : Front: L R
Частота : 48,0 КГц
Битовая глубина : 16 бит
Метод сжатия : С потерями
Размер потока : 156 Мбайт (4%)
Заголовок : DVO (Ирма Стефанова, Кирилл Сафронов)
Язык : Russian
Default : Да
Forced : Нет

Аудио #2
Идентификатор : 3
Формат : AC-3
Формат/Информация : Audio Coding 3
Расширение режима : CM (complete main)
Параметр Endianness формата : Big
Идентификатор кодека : A_AC3
Продолжительность : 1 ч. 53 м.
Вид битрейта : Постоянный
Битрейт : 192 Кбит/сек
Каналы : 2 канала
Расположение каналов : Front: L R
Частота : 48,0 КГц
Битовая глубина : 16 бит
Метод сжатия : С потерями
Размер потока : 156 Мбайт (4%)
Заголовок : AVO (Юрий Сербин)
Язык : Russian
Default : Нет
Forced : Нет



Скачать Ледяной.ветер.The.Ice.Storm.(Энг.Ли).[1997.драма.BDRip].[720p].[DVO]+[AVO]+[Оригинал]+[Sub].torrent без регистрации
Золото ЗОЛОТАЯ РАЗДАЧА! СКАЧАННОЕ НЕ ЗАСЧИТЫВАЕТСЯ! Золото
Дата: Зарегистрирован   [ Тип: внутренний ] Как тут cкачать?
MAGNET ссылка
MAGNET ссылка


Скачать .torrent

21 KB

Статус: проверено DHT
Скачан: торрент - 127 раз, раздача полностью - 1 раз
Размер: 4,07 GB
Оценка:  - (Голосов: 0)
Поблагодарили: 2
Поделиться ссылкой на эту раздачу с друзьями:
В контактеFacebookОдноклассникиTwitterLivejournalМой МирLiveinternet
 

 
Показать сообщения:    


Вы не можете начинать темы
Вы не можете отвечать на сообщения
Вы не можете редактировать свои сообщения
Вы не можете удалять свои сообщения
Вы не можете голосовать в опросах
Вы не можете прикреплять файлы к сообщениям
Вы можете скачивать файлы