Loading...
Error

Скачать Клетка / The Cell (Тарсем Сингх) [2000, фантастика, триллер, драма, криминал, BDRip-AVC] [Dub]+[MVO]+[DVO]+[AVO]+[Оригинал]+[Sub]x3 торрент без регистрации

Статистика раздачи
Размер:  3,07 GB   |    Скачан:  145 раз
Сидов:  1  [  0 KB/s  ]  
 
 
 
Автор Сообщение

Marsianka

[] 

Информация о фильме
Название: Клетка
Оригинальное название: The Cell
Год выпуска: 2000
Жанр: фантастика, триллер, драма, криминал
Режиссер: Тарсем Сингх
В ролях: Дженнифер Лопес, Джерри Беккер, Патрик Бошо, Дилан Бэйкер, Винс Вон, Винсент Д'Онофрио, Марианна Жан-Батист, Катрин Сазерленд, Питер Сарсгаард, Тара Субкофф, Джейк Уэбер, Джейк Томас, Колтон Джеймс, Джон Котрэн мл., Дин Норрис, Джек Конли, Камар Де Лос Рейс, Николас Каскон, Мьюсетта Вэндер, Джеймс Гэммон, Прюитт Тейлор Винс, Дженнифер Дэй, Ванесса Брэнч, Кристофер Дженни, Гарет Уильямс, Моника Крил, Джо Ла Пиана, Лианна Крил, Лори Джонсон, Джой Крил, Кальви Пабон

О фильме: Опасный маньяк, пытающий и убивающий девушек, пойман полицией, но очень некстати впал в кому - теперь детективы не знают, где находится его последняя жертва. Чтобы выяснить это, приглашена женщина-психиатр, которая умеет проникать в дремлющее сознание таких людей. Только путешествие по закоулкам больного разума может оказаться опасным.



Страна: США, Германия
Студия: New Line Cinema, Katira Productions GmbH & Co. KG, Caro-McLeod, Avery Pix
Продолжительность: 01:47:10
Перевод: Дублированный, профессиональный многоголосый, профессиональный двухголосый, авторский одноголосый

Файл
Кодек: x264
Качество: BDRip-AVC
Видео: MPEG-4 AVC, 1923 Кбит/с, 1024x428, 23.976 кадр/с
Аудио #1: Русский (AC3, 6 ch, 384 Кбит/с) / Дублированный (Нева-1)
Аудио #2: Русский (AC3, 6 ch, 448 Кбит/с) / Профессиональный многоголосый (R5 CP Digital)
Аудио #3: Русский (AC3, 6 ch, 448 Кбит/с) / Профессиональный двухголосый (пиратка DDV)
Аудио #4: Русский (AC3, 6 ch, 448 Кбит/с) / Авторский одноголосый (Живов)
Аудио #5: Английский (AC3, 6 ch, 448 Кбит/с)
Субтитры: Русские (форсированные, полные по дубляжу, R5 CP Digital, любительские от Bound, urbachs.de), английские
Семпл
x264 [info]: frame I:1400 Avg QP:14.37 size: 79053
x264 [info]: frame P:43338 Avg QP:17.97 size: 20125
x264 [info]: frame B:109430 Avg QP:19.98 size: 5138

=============================================

Уникальный идентификатор : 188154174948986445138867515917909890412 (0x8D8D2D0C57882471A4AF0CB27E0C156C)
Полное имя : E:MCKletka.2000.x264.BDRip(AVC)-MediaClubKletka.2000.x264.BDRip(AVC)-MediaClub.mkv
Формат : Matroska
Версия формата : Version 4 / Version 2
Размер файла : 3,07 Гбайт
Продолжительность : 1 ч. 47 м.
Общий поток : 4101 Кбит/сек
Название фильма : -= Release MediaClub =-
Дата кодирования : UTC 2014-03-30 15:51:30
Программа кодирования : mkvmerge v6.4.1 ('Omega Point') built on Sep 16 2013 22:05:10
Библиотека кодирования : libebml v1.3.0 + libmatroska v1.4.1
Attachment : Yes

Видео
Идентификатор : 1
Формат : AVC
Формат/Информация : Advanced Video Codec
Профиль формата : High@L4.1
Параметр CABAC формата : Да
Параметр ReFrames формата : 10 кадров
Идентификатор кодека : V_MPEG4/ISO/AVC
Продолжительность : 1 ч. 47 м.
Битрейт : 1923 Кбит/сек
Ширина : 1024 пикселя
Высота : 428 пикселей
Соотношение сторон : 2,40:1
Режим частоты кадров : Постоянный
Частота кадров : 23,976 кадра/сек
Цветовое пространство : YUV
Субдискретизация насыщенности : 4:2:0
Битовая глубина : 8 бит
Тип развёртки : Прогрессивная
Бит/(Пиксели*Кадры) : 0.183
Размер потока : 1,38 Гбайт (45%)
Заголовок : Kletka.2000.x264.BDRip(AVC)-neni
Библиотека кодирования : x264 core 130 r2273 b3065e6
Настройки программы : cabac=1 / ref=10 / deblock=1:-3:-3 / analyse=0x3:0x133 / me=umh / subme=11 / psy=1 / psy_rd=1.00:0.20 / mixed_ref=1 / me_range=48 / chroma_me=1 / trellis=2 / 8x8dct=1 / cqm=0 / deadzone=21,11 / fast_pskip=0 / chroma_qp_offset=-3 / threads=9 / lookahead_threads=1 / sliced_threads=0 / nr=0 / decimate=0 / interlaced=0 / bluray_compat=0 / constrained_intra=0 / bframes=9 / b_pyramid=2 / b_adapt=2 / b_bias=0 / direct=3 / weightb=1 / open_gop=0 / weightp=2 / keyint=240 / keyint_min=23 / scenecut=40 / intra_refresh=0 / rc=2pass / mbtree=0 / bitrate=1923 / ratetol=1.0 / qcomp=0.60 / qpmin=0 / qpmax=69 / qpstep=4 / cplxblur=20.0 / qblur=0.5 / ip_ratio=1.40 / pb_ratio=1.30 / aq=2:1.20
Язык : English
Default : Да
Forced : Да

Аудио #1
Идентификатор : 2
Формат : AC-3
Формат/Информация : Audio Coding 3
Расширение режима : CM (complete main)
Параметр Endianness формата : Big
Идентификатор кодека : A_AC3
Продолжительность : 1 ч. 47 м.
Вид битрейта : Постоянный
Битрейт : 384 Кбит/сек
Каналы : 6 каналов
Расположение каналов : Front: L C R, Side: L R, LFE
Частота : 48,0 КГц
Битовая глубина : 16 бит
Метод сжатия : С потерями
Размер потока : 294 Мбайт (9%)
Заголовок : RUS Dub Neva-1 / Gemini Film DD 5.1, 48 kHz, 384 kbps
Язык : Russian
Default : Да
Forced : Да

Аудио #2
Идентификатор : 3
Формат : AC-3
Формат/Информация : Audio Coding 3
Расширение режима : CM (complete main)
Параметр Endianness формата : Big
Идентификатор кодека : A_AC3
Продолжительность : 1 ч. 47 м.
Вид битрейта : Постоянный
Битрейт : 448 Кбит/сек
Каналы : 6 каналов
Расположение каналов : Front: L C R, Side: L R, LFE
Частота : 48,0 КГц
Битовая глубина : 16 бит
Метод сжатия : С потерями
Размер потока : 343 Мбайт (11%)
Заголовок : RUS MVO R5 CP Digital DD 5.1, 48 kHz, 448 kbps
Язык : Russian
Default : Нет
Forced : Нет

Аудио #3
Идентификатор : 4
Формат : AC-3
Формат/Информация : Audio Coding 3
Расширение режима : CM (complete main)
Параметр Endianness формата : Big
Идентификатор кодека : A_AC3
Продолжительность : 1 ч. 47 м.
Вид битрейта : Постоянный
Битрейт : 448 Кбит/сек
Каналы : 6 каналов
Расположение каналов : Front: L C R, Side: L R, LFE
Частота : 48,0 КГц
Битовая глубина : 16 бит
Метод сжатия : С потерями
Размер потока : 343 Мбайт (11%)
Заголовок : RUS MVO DDV DD 5.1, 48 kHz, 448 kbps
Язык : Russian
Default : Нет
Forced : Нет

Аудио #4
Идентификатор : 5
Формат : AC-3
Формат/Информация : Audio Coding 3
Расширение режима : CM (complete main)
Параметр Endianness формата : Big
Идентификатор кодека : A_AC3
Продолжительность : 1 ч. 47 м.
Вид битрейта : Постоянный
Битрейт : 448 Кбит/сек
Каналы : 6 каналов
Расположение каналов : Front: L C R, Side: L R, LFE
Частота : 48,0 КГц
Битовая глубина : 16 бит
Метод сжатия : С потерями
Размер потока : 343 Мбайт (11%)
Заголовок : RUS AVO Zhivov
Язык : Russian
Default : Нет
Forced : Нет

Аудио #5
Идентификатор : 6
Формат : AC-3
Формат/Информация : Audio Coding 3
Расширение режима : CM (complete main)
Параметр Endianness формата : Big
Идентификатор кодека : A_AC3
Продолжительность : 1 ч. 47 м.
Вид битрейта : Постоянный
Битрейт : 448 Кбит/сек
Каналы : 6 каналов
Расположение каналов : Front: L C R, Side: L R, LFE
Частота : 48,0 КГц
Битовая глубина : 16 бит
Метод сжатия : С потерями
Размер потока : 343 Мбайт (11%)
Заголовок : ENG
Язык : English
Default : Нет
Forced : Нет

Текст #1
Идентификатор : 7
Формат : UTF-8
Идентификатор кодека : S_TEXT/UTF8
Идентификатор кодека/Информация : UTF-8 Plain Text
Заголовок : RUS forced SRT/UTF8
Язык : Russian
Default : Да
Forced : Нет

Текст #2
Идентификатор : 8
Формат : UTF-8
Идентификатор кодека : S_TEXT/UTF8
Идентификатор кодека/Информация : UTF-8 Plain Text
Заголовок : RUS Dub SRT/UTF8
Язык : Russian
Default : Нет
Forced : Нет

Текст #3
Идентификатор : 9
Формат : UTF-8
Идентификатор кодека : S_TEXT/UTF8
Идентификатор кодека/Информация : UTF-8 Plain Text
Заголовок : RUS R5 CP Digital SRT/UTF8
Язык : Russian
Default : Нет
Forced : Нет

Текст #4
Идентификатор : 10
Формат : UTF-8
Идентификатор кодека : S_TEXT/UTF8
Идентификатор кодека/Информация : UTF-8 Plain Text
Заголовок : RUS fan Bound SRT/UTF8
Язык : Russian
Default : Нет
Forced : Нет

Текст #5
Идентификатор : 11
Формат : UTF-8
Идентификатор кодека : S_TEXT/UTF8
Идентификатор кодека/Информация : UTF-8 Plain Text
Заголовок : RUS fan urbachs.de SRT/UTF8
Язык : Russian
Default : Нет
Forced : Нет

Текст #6
Идентификатор : 12
Формат : UTF-8
Идентификатор кодека : S_TEXT/UTF8
Идентификатор кодека/Информация : UTF-8 Plain Text
Заголовок : ENG SRT/UTF8
Язык : English
Default : Нет
Forced : Нет

Меню
00:00:00.000 : ru:Вступительные титры
00:06:40.233 : ru:Эдвард
00:12:44.764 : ru:Кукла
00:18:29.108 : ru:Новая жертва
00:26:28.587 : ru:Захват
00:34:32.904 : ru:Найти девушку
00:40:10.325 : ru:В его мире
00:47:55.873 : ru:Вера и реальность
00:56:04.736 : ru:Второй сеанс
01:01:30.687 : ru:Моя первая
01:07:47.063 : ru:На помощь
01:14:23.459 : ru:В ловушке
01:21:51.532 : ru:Я знаю где она
01:26:14.169 : ru:Спасение
01:32:09.733 : ru:Заключение
01:42:34.148 : ru:Финальные титры

Оскар, 2001 год.
Номинации (1): Лучший грим.

Премия канала «MTV», 2001 год.
Победитель (1): Лучшая одежда (Дженнифер Лопез).
Номинации (2):
Лучшая женская роль (Дженнифер Лопез).
Лучший злодей (Винсент ДОнофрио).

Сатурн, 2001 год.
Номинации (4):
Лучшая актриса (Дженнифер Лопез).
Лучшие костюмы.
Лучший научно-фантастический фильм.
Лучший грим.
Релиз от: Rip by



Скачать Клетка.The.Cell.(Тарсем.Сингх).[2000.фантастика.триллер.драма.криминал.BDRip-AVC].[Dub]+[MVO]+[DVO]+[AVO]+[Оригинал]+[Sub]x3.torrent без регистрации
Золото ЗОЛОТАЯ РАЗДАЧА! СКАЧАННОЕ НЕ ЗАСЧИТЫВАЕТСЯ! Золото
Дата: Зарегистрирован   [ Тип: внутренний ] Как тут cкачать?
MAGNET ссылка
MAGNET ссылка


Скачать .torrent

16 KB

Статус: проверено DHT
Скачан: торрент - 145 раз, раздача полностью - 72 раз
Размер: 3,07 GB
Оценка:  5 (Голосов: 1)
Поблагодарили: 3
Поделиться ссылкой на эту раздачу с друзьями:
В контактеFacebookОдноклассникиTwitterLivejournalМой МирLiveinternet
 

 
Показать сообщения:    


Вы не можете начинать темы
Вы не можете отвечать на сообщения
Вы не можете редактировать свои сообщения
Вы не можете удалять свои сообщения
Вы не можете голосовать в опросах
Вы не можете прикреплять файлы к сообщениям
Вы можете скачивать файлы