Loading...
Error

Скачать Давление / Cabin Pressure (Алан Симмондс) [2001, триллер, DVDRip] [MVO]+[Оригинал] торрент без регистрации

Статистика раздачи
Размер:  1,46 GB   |    Скачан:  126 раз

Полного источника не было: 19 минут

 
 
 
Автор Сообщение

Marsianka

[] 



Страна: США, Канада
Производство: Crescent Entertainment, Lions Gate Entertainment
Жанр: триллер
Год выпуска: 2001

Продолжительность: 01:33:32

Перевод: Профессиональный многоголосый

Оригинальная аудиодорожка: Английская

Режиссер: Алан Симмондс

В ролях: Крэйг Шеффер, Рэйчел Хейуорд, Уинстон Рекерт, Франсуаза Йип, Майкл Копса, Александрия Митчелл, Джон Пайпер-Фергюсон, Джейсон Лоу, Джейн Соерби, Нельс Леннарсон

Описание: Суперсовременный реактивный лайнер, который считается самым надежным и безопасным в мире, готовится к своему первому полету. Однако его создатели не учли один важный фактор: компьютерный программист Уингфилд намерен жестоко отомстить владельцам авиакомпании, уволившим его с работы. Уингфилд внедряет вирус в систему управления и сразу после взлета берет самолет под свой полный контроль, заставив его кружить над Сиэтлом, терроризируя пассажиров по внутренней связи из своего тайного убежища на земле.



Исходник: DVD5 R5

Тип релиза: DVDRip

Контейнер: AVI

Видео: XviD, 1836 Кбит/с, 720х400
Аудио: Русский, английский (АС3, 2 ch, 192 Кбит/с)
Общее
Полное имя : D:залитьДавление.avi
Формат : AVI
Формат/Информация : Audio Video Interleave
Размер файла : 1,46 Гбайт
Продолжительность : 1 ч. 33 м.
Общий поток : 2234 Кбит/сек
Программа кодирования : VirtualDubMod 1.5.10.2 (build 2540/release)
Библиотека кодирования : VirtualDubMod build 2540/release

Видео
Идентификатор : 0
Формат : MPEG-4 Visual
Профиль формата : Advanced Simple@L5
Параметр BVOP формата : 2
Параметр QPel формата : Нет
Параметр GMC формата : Без точки перехода
Параметр матрицы формата : Default (MPEG)
Идентификатор кодека : XVID
Идентификатор кодека/Подсказка : XviD
Продолжительность : 1 ч. 33 м.
Битрейт : 1836 Кбит/сек
Ширина : 720 пикселей
Высота : 400 пикселей
Соотношение сторон : 16:9
Частота кадров : 23,976 кадра/сек
Цветовое пространство : YUV
Субдискретизация насыщенности : 4:2:0
Битовая глубина : 8 бит
Тип развёртки : Прогрессивная
Метод сжатия : С потерями
Бит/(Пиксели*Кадры) : 0.266
Размер потока : 1,20 Гбайт (82%)
Библиотека кодирования : XviD 1.2.1 (UTC 2008-12-04)

Аудио #1
Идентификатор : 1
Формат : AC-3
Формат/Информация : Audio Coding 3
Расширение режима : CM (complete main)
Параметр Endianness формата : Big
Идентификатор кодека : 2000
Продолжительность : 1 ч. 33 м.
Вид битрейта : Постоянный
Битрейт : 192 Кбит/сек
Каналы : 2 канала
Расположение каналов : Front: L R
Частота : 48,0 КГц
Битовая глубина : 16 бит
Метод сжатия : С потерями
Размер потока : 128 Мбайт (9%)
Выравнивание : Разделение по промежуткам
Продолжительность промежутка : 42 мс. (1,00 видеокадр)
Время предзагрузки промежутка : 500 мс.

Аудио #2
Идентификатор : 2
Формат : AC-3
Формат/Информация : Audio Coding 3
Расширение режима : CM (complete main)
Параметр Endianness формата : Big
Идентификатор кодека : 2000
Продолжительность : 1 ч. 33 м.
Вид битрейта : Постоянный
Битрейт : 192 Кбит/сек
Каналы : 2 канала
Расположение каналов : Front: L R
Частота : 48,0 КГц
Битовая глубина : 16 бит
Метод сжатия : С потерями
Размер потока : 128 Мбайт (9%)
Выравнивание : Разделение по промежуткам
Продолжительность промежутка : 42 мс. (1,00 видеокадр)
Время предзагрузки промежутка : 500 мс.
Автор рипа:



Скачать Давление.Cabin.Pressure.(Алан.Симмондс).[2001.триллер.DVDRip].[MVO]+[Оригинал].torrent без регистрации
Золото ЗОЛОТАЯ РАЗДАЧА! СКАЧАННОЕ НЕ ЗАСЧИТЫВАЕТСЯ! Золото
Дата: Зарегистрирован   [ Тип: внутренний ] Как тут cкачать?
MAGNET ссылка
MAGNET ссылка


Скачать .torrent

15 KB

Статус: проверено DHT
Скачан: торрент - 126 раз, раздача полностью - 1 раз
Размер: 1,46 GB
Оценка:  - (Голосов: 0)
Поблагодарили: 1
Поделиться ссылкой на эту раздачу с друзьями:
В контактеFacebookОдноклассникиTwitterLivejournalМой МирLiveinternet
 

 
Показать сообщения:    


Вы не можете начинать темы
Вы не можете отвечать на сообщения
Вы не можете редактировать свои сообщения
Вы не можете удалять свои сообщения
Вы не можете голосовать в опросах
Вы не можете прикреплять файлы к сообщениям
Вы можете скачивать файлы