Loading...
Error

Скачать Турбофорсаж / Autobahn Racer (Майкл Койш) [2004, боевик, комедия, приключения, DVDRip] [MVO] торрент без регистрации

Статистика раздачи
Размер:  1,46 GB   |    Скачан:  134 раза
Сидов:  1  [  0 KB/s  ]  
 
 
 
Автор Сообщение

Marsianka

[] 

Информация о фильме
Название: Турбофорсаж
Оригинальное название: Autobahn Racer
Год выхода: 2004
Жанр: боевик, комедия, приключения
Режиссёр: Майкл Койш
В ролях: Люк Уилкинс, Александра Нельдель, Генриетта Рихтер-Роль, Нильс-Бруно Шмидт, Мануэль Кортез

О фильме:
Компанию сорвиголов на навороченных машинах объединяет одна страсть: гонки без ограничений скорости. Парням регулярно «обламывает кайф» полиция, принимая их за угонщиков дорогих спортивных автомобилей. А все попытки поймать воров приводят к одному и тому же результату: груда покорёженных полицейских машин и «растворившиеся в воздухе» преступники. Инспектор полиции Карл получает задание внедриться в тусовку гонщиков. Он становится в ней своим и даже добивается взаимности от красотки Ники, пилотирующей быстрый, как молния «БМВ М3». Но угонщики наносят новый удар, похитив «Феррари», «Мазерати» и «Ламборгини» - «миллион долларов на колёсах». Повсюду полицейские. Ни о каких гонках не может быть и речи. И тогда Карл предлагает план: чтобы беспрепятственно гонять по трассе, они сами должны поймать угонщиков



Страна: Германия, Люксембург
Студия: Constantin Film Produktion GmbH
Продолжительность: 01:24:14
Перевод: Профессиональный многоголосый
Оригинальная аудио-дорожка: Нет

Файл
Кодек: XviD
Качество: DVDRip (Исходник: DVD-5)
Видео: XviD, 720x304 (2.37:1), 25 кадр/с, 2030 Кбит/с
Звук: Русский, Dolby AC3, 48000 Гц, 448 Кбит/с, 6 каналов (5.1)
Субтитры: Нет



Автор рипа - ivandubskoj

Общее
Полное имя : Turboforsaj.2004.DVDRip.avi
Формат : AVI
Формат/Информация : Audio Video Interleave
Размер файла : 1,46 Гбайт
Продолжительность : 1 ч. 24 м.
Общий поток : 2485 Кбит/сек
Название фильма : Турбофорсаж / Autobahnraser (2004) DVDRip
Жанр : Боевик, комедия, приключения
Дата записи : 05.04.2014
Программа кодирования : VirtualDubMod 1.5.10.3 (build 2550/release)
Библиотека кодирования : VirtualDubMod build 2550/release
Правообладатель : rip by ivandubskoj

Видео
Идентификатор : 0
Формат : MPEG-4 Visual
Профиль формата : Advanced Simple@L5
Параметр BVOP формата : 1
Параметр QPel формата : Нет
Параметр GMC формата : Без точки перехода
Параметр матрицы формата : Default (MPEG)
Идентификатор кодека : XVID
Идентификатор кодека/Подсказка : XviD
Продолжительность : 1 ч. 24 м.
Битрейт : 2029 Кбит/сек
Ширина : 720 пикселей
Высота : 304 пикселя
Соотношение сторон : 2,35:1
Частота кадров : 25,000 кадров/сек
Цветовое пространство : YUV
Субдискретизация насыщенности : 4:2:0
Битовая глубина : 8 бит
Тип развёртки : Прогрессивная
Метод сжатия : С потерями
Бит/(Пиксели*Кадры) : 0.371
Размер потока : 1,19 Гбайт (82%)
Библиотека кодирования : XviD 73

Аудио
Идентификатор : 1
Формат : AC-3
Формат/Информация : Audio Coding 3
Расширение режима : CM (complete main)
Параметр Endianness формата : Big
Идентификатор кодека : 2000
Продолжительность : 1 ч. 24 м.
Вид битрейта : Постоянный
Битрейт : 448 Кбит/сек
Каналы : 6 каналов
Расположение каналов : Front: L C R, Side: L R, LFE
Частота : 48,0 КГц
Битовая глубина : 16 бит
Метод сжатия : С потерями
Размер потока : 270 Мбайт (18%)
Выравнивание : Разделение по промежуткам
Продолжительность промежутка : 64 мс. (1,60 видеокадра)
Время предзагрузки промежутка : 500 мс.
Заголовок : Russian (MVO)



Скачать Турбофорсаж.Autobahn.Racer.(Майкл.Койш).[2004.боевик.комедия.приключения.DVDRip].[MVO].torrent без регистрации
Золото ЗОЛОТАЯ РАЗДАЧА! СКАЧАННОЕ НЕ ЗАСЧИТЫВАЕТСЯ! Золото
Дата: Зарегистрирован   [ Тип: внутренний ] Как тут cкачать?
MAGNET ссылка
MAGNET ссылка


Скачать .torrent

15 KB

Статус: проверено DHT
Скачан: торрент - 134 раз, раздача полностью - 78 раз
Размер: 1,46 GB
Оценка:  5 (Голосов: 1)
Поблагодарили: 1
Поделиться ссылкой на эту раздачу с друзьями:
В контактеFacebookОдноклассникиTwitterLivejournalМой МирLiveinternet
 

 
Показать сообщения:    


Вы не можете начинать темы
Вы не можете отвечать на сообщения
Вы не можете редактировать свои сообщения
Вы не можете удалять свои сообщения
Вы не можете голосовать в опросах
Вы не можете прикреплять файлы к сообщениям
Вы можете скачивать файлы