Loading...
Error

Скачать Тарзан / Tarzan (Райнхард Клоосс) [2013, мультфильм, семейный, приключения, BDRip] [1080p] [Dub] [Лицензия] торрент без регистрации

Статистика раздачи
Размер:  7,01 GB   |    Скачан:  2599 раз
Сидов:  1  [  0 KB/s  ]  
 
 
 
Автор Сообщение

МихаНЕзатор

[] 

Информация о фильме
Название: Тарзан
Оригинальное название: Tarzan
Год выпуска: 2013
Жанр: мультфильм, семейный, приключения
Режиссер: Райнхард Клоосс

В ролях: Келлан Латс, Спенсер Лок, Тревор Ст. Джон, Лес Бабб, Брайан Блум, Брайан Хаски, Роберт Капрон, Джейми Рэй Ньюман, Марк Деклин, Джо Осмонд

О фильме: Во время крушения американского воздушного лайнера вPджунглях погибли всеPпассажиры, выжил лишь один младенец. ОнPстал приемышем вPстае диких обезьян, которые выкормили, вырастили его, научили выживать вPэтом жестком мире естественного отбора Пришло время, иPтеперь мощный иPловкий, онPдолжен защитить свой мирPот врагов. НоPглавноеPPон должен снова стать человеком.

Релиз:

Выпущено: Германия, Ambient Entertainment GmbH, Constantin Film Produktion GmbH
Продолжительность: 01:34:11
Перевод: Дублированный

Файл
Качество: BDRip 1080p
Видео: MPEG-4 AVC, 8500 Кбит/с, 1916x804, 23.976 кадр/с
Аудио #1: Русский (DTS, 6 ch, 1509 Кбит/с) / Дублированный
Аудио #2: Русский (АС3, 6 ch, 640 Кбит/с) / Дублированный

АНОНСЫ ПОПУЛЯРНЫХ РАЗДАЧ
Общее
Уникальный идентификатор : 197186080415017988975727764187513792054 (0x9458A85E4A712757A13F6BD9B55EA636)
Полное имя : D:Mои раздачиTarzan.2013.BDRip.1080p-MediaClub.mkv
Формат : Matroska
Версия формата : Version 4 / Version 2
Размер файла : 7,01 Гбайт
Продолжительность : 1 ч. 34 м.
Общий поток : 10,7 Мбит/сек
Название фильма : -=MediaClub-kaspr=-
Дата кодирования : UTC 2014-04-22 13:43:13
Программа кодирования : mkvmerge v6.1.0 ('Old Devil') built on Mar 4 2013 09:10:42
Библиотека кодирования : libebml v1.3.0 + libmatroska v1.4.0

Видео
Идентификатор : 1
Формат : AVC
Формат/Информация : Advanced Video Codec
Профиль формата : High@L4.1
Параметр CABAC формата : Да
Параметр ReFrames формата : 5 кадров
Идентификатор кодека : V_MPEG4/ISO/AVC
Продолжительность : 1 ч. 34 м.
Битрейт : 8500 Кбит/сек
Ширина : 1916 пикселей
Высота : 804 пикселя
Соотношение сторон : 2,40:1
Режим частоты кадров : Постоянный
Частота кадров : 23,976 кадра/сек
Цветовое пространство : YUV
Субдискретизация насыщенности : 4:2:0
Битовая глубина : 8 бит
Тип развёртки : Прогрессивная
Бит/(Пиксели*Кадры) : 0.230
Размер потока : 5,45 Гбайт (78%)
Заголовок : -=MediaClub-kaspr=-
Библиотека кодирования : x264 core 142 r2409+42 04be48a tMod [8-bit@4:2:0 X86_64]
Настройки программы : cabac=1 / ref=5 / deblock=1:-3:-3 / analyse=0x3:0x113 / me=umh / subme=11 / psy=1 / fade_compensate=0.00 / psy_rd=1.00:0.20 / mixed_ref=1 / me_range=32 / chroma_me=1 / trellis=2 / 8x8dct=1 / cqm=0 / deadzone=21,11 / fast_pskip=0 / chroma_qp_offset=-3 / threads=12 / lookahead_threads=2 / sliced_threads=0 / nr=0 / decimate=0 / interlaced=0 / bluray_compat=0 / constrained_intra=0 / fgo=0 / bframes=9 / b_pyramid=2 / b_adapt=2 / b_bias=0 / direct=3 / weightb=1 / open_gop=0 / weightp=2 / keyint=240 / keyint_min=23 / scenecut=40 / intra_refresh=0 / rc_lookahead=40 / rc=2pass / mbtree=1 / bitrate=8500 / ratetol=1.0 / qcomp=0.60 / qpmin=0:0:0 / qpmax=69:69:69 / qpstep=4 / cplxblur=20.0 / qblur=0.5 / ip_ratio=1.40 / aq=2:0.80 / aq-sensitivity=10.00 / aq-factor=1.00:1.00:1.00 / aq2=0 / aq3=0
Default : Да
Forced : Да

Аудио #1
Идентификатор : 2
Формат : DTS
Формат/Информация : Digital Theater Systems
Режим : 16
Параметр Endianness формата : Big
Идентификатор кодека : A_DTS
Продолжительность : 1 ч. 34 м.
Вид битрейта : Постоянный
Битрейт : 1509 Кбит/сек
Каналы : 6 каналов
Расположение каналов : Front: L C R, Side: L R, LFE
Частота : 48,0 КГц
Битовая глубина : 24 бит
Метод сжатия : С потерями
Размер потока : 1017 Мбайт (14%)
Заголовок : Dub-DTS
Язык : Russian
Default : Да
Forced : Да

Аудио #2
Идентификатор : 3
Формат : AC-3
Формат/Информация : Audio Coding 3
Расширение режима : CM (complete main)
Параметр Endianness формата : Big
Идентификатор кодека : A_AC3
Продолжительность : 1 ч. 34 м.
Вид битрейта : Постоянный
Битрейт : 640 Кбит/сек
Каналы : 6 каналов
Расположение каналов : Front: L C R, Side: L R, LFE
Частота : 48,0 КГц
Битовая глубина : 16 бит
Метод сжатия : С потерями
Размер потока : 431 Мбайт (6%)
Заголовок : Dub-AC3
Язык : Russian
Default : Нет
Forced : Нет

Меню
00:00:00.000 : en:00:00:00.000
00:07:14.017 : en:00:07:14.017
00:16:43.586 : en:00:16:43.586
00:23:57.019 : en:00:23:57.019
00:32:42.210 : en:00:32:42.210
00:39:06.302 : en:00:39:06.302
00:46:22.488 : en:00:46:22.488
00:56:07.656 : en:00:56:07.656
01:05:37.433 : en:01:05:37.433
01:14:57.827 : en:01:14:57.827
01:21:31.428 : en:01:21:31.428
01:25:21.616 : en:01:25:21.616
x264 [info]: frame I:1518 Avg QP:13.59 size:297972
x264 [info]: frame P:44401 Avg QP:17.98 size: 79578
x264 [info]: frame B:89574 Avg QP:21.80 size: 22528
x264 [info]: consecutive B-frames: 10.7% 9.6% 17.3% 24.0% 11.4% 24.2% 1.2% 0.9% 0.2% 0.6%
x264 [info]: mb I I16..4: 7.1% 68.9% 24.0%
x264 [info]: mb P I16..4: 1.2% 16.3% 2.5% P16..4: 24.3% 29.2% 13.5% 0.0% 0.0% skip:13.0%
x264 [info]: mb B I16..4: 0.2% 3.3% 0.5% B16..8: 28.3% 15.4% 2.3% direct: 5.8% skip:44.3% L0:35.9% L1:39.8% BI:24.3%
x264 [info]: 8x8 transform intra:79.9% inter:53.4%
x264 [info]: direct mvs spatial:87.8% temporal:12.2%
x264 [info]: coded y,uvDC,uvAC intra: 82.7% 76.0% 52.4% inter: 25.6% 20.7% 12.3%
x264 [info]: i16 v,h,dc,p: 16% 16% 9% 60%
x264 [info]: i8 v,h,dc,ddl,ddr,vr,hd,vl,hu: 15% 12% 8% 7% 10% 11% 11% 12% 14%
x264 [info]: i4 v,h,dc,ddl,ddr,vr,hd,vl,hu: 32% 9% 7% 5% 11% 10% 10% 7% 8%
x264 [info]: i8c dc,h,v,p: 33% 28% 20% 19%
x264 [info]: Weighted P-Frames: Y:2.0% UV:1.5%
x264 [info]: ref P L0: 64.2% 14.6% 13.2% 4.3% 3.0% 0.7% 0.0%
x264 [info]: ref B L0: 90.5% 7.1% 1.9% 0.5%
x264 [info]: ref B L1: 96.2% 3.8%
x264 [info]: kb/s:8498.89



Скачать Тарзан.Tarzan.(Райнхард.Клоосс).[2013.мультфильм.семейный.приключения.BDRip].[1080p].[Dub].[Лицензия].torrent без регистрации
Золото ЗОЛОТАЯ РАЗДАЧА! СКАЧАННОЕ НЕ ЗАСЧИТЫВАЕТСЯ! Золото
Дата: Зарегистрирован   [ Тип: внутренний ] Как тут cкачать?
MAGNET ссылка
MAGNET ссылка


Скачать .torrent

18 KB

Статус: проверено DHT
Скачан: торрент - 2599 раз, раздача полностью - 729 раз
Размер: 7,01 GB
Оценка:  5 (Голосов: 3)
Поблагодарили: 13
Поделиться ссылкой на эту раздачу с друзьями:
В контактеFacebookОдноклассникиTwitterLivejournalМой МирLiveinternet
 

 
Показать сообщения:    


Вы не можете начинать темы
Вы не можете отвечать на сообщения
Вы не можете редактировать свои сообщения
Вы не можете удалять свои сообщения
Вы не можете голосовать в опросах
Вы не можете прикреплять файлы к сообщениям
Вы можете скачивать файлы