Loading...
Error

Скачать Лесной патруль / Pelle Politibil på sporet (Расмус А. Сивертсен) [2013, мультфильм, приключения, WEB-DL] [720p] [Dub] [Чистый звук] торрент без регистрации

Статистика раздачи
Размер:  2 GB   |    Скачан:  324 раза
Сидов:  1  [  0 KB/s  ]  
 
 
 
Автор Сообщение

МихаНЕзатор

[] 

Информация о фильме
Название: Лесной патруль
Оригинальное название: Pelle Politibil på sporet
Год выхода: 2013
Жанр: мультфильм, приключения
Режиссер: Расмус А. Сивертсен


В ролях: Гард Б. Эйдсвольд, Лене Конгсвик Йохансен, Эмили Нордли, Хеге Шёен, Роберт Столтенберг, Бьорн Сундквист, Пернилла Серенсен



О фильме: «А ну-ка догони»
Из национального заповедника похищают главное его достояние — орла редкой породы. Но при похищении удается спастись его птенцу. Патрульная машина Плодди вместе с верными друзьями спешит на помощь. Им предстоит выяснить, кто же этот коварный похититель, а заодно и присмотреть за малышом, пока не найдется его мама.







Страна: Норвегия
Студия: Neofilm
Продолжительность: 01:09:54
Перевод: Дублированный Чистый звук

Файл
Кодек: h.264 (MKV)
Качество: WEB-DL 720p
Видео: AVC, 1280 x 720, ~3256 kbps
Звук: Русский: AC-3, 2 ch, 384 kbps / Hорвежский: AC-3, 6 ch, 384 kbps
Субтитры: нет


АНОНСЫ ПОПУЛЯРНЫХ РАЗДАЧ
Общее
Уникальный идентификатор : 168348648403719580577546155723716462494 (0x7EA6C532C2870C1E037BA147C20E879E)
Полное имя : F:Лесной патруль Pelle Politibil på sporet (2013)Lesnoy.Patrul.2013.D.WEB-DL 720p.mkv
Формат : Matroska
Версия формата : Version 2
Размер файла : 2,00 Гбайт
Продолжительность : 1 ч. 9 м.
Режим общего битрейта : Переменный
Общий поток : 4106 Кбит/сек
Программа кодирования : Lavf51.12.1
Библиотека кодирования : Lavf51.12.1

Видео
Идентификатор : 1
Формат : AVC
Формат/Информация : Advanced Video Codec
Профиль формата : Baseline@L3.1
Параметр CABAC формата : Нет
Параметр ReFrames формата : 1 кадр
Параметр GOP формата : M=1, N=12
Идентификатор кодека : V_MPEG4/ISO/AVC
Продолжительность : 1 ч. 9 м.
Вид битрейта : Переменный
Битрейт : 3256 Кбит/сек
Максимальный битрейт : 4800 Кбит/сек
Ширина : 1280 пикселей
Высота : 720 пикселей
Соотношение сторон : 16:9
Режим частоты кадров : Постоянный
Частота кадров : 25,000 кадров/сек
Частота кадров в оригинале : 24,000 кадра/сек
Цветовое пространство : YUV
Субдискретизация насыщенности : 4:2:0
Битовая глубина : 8 бит
Тип развёртки : Прогрессивная
Бит/(Пиксели*Кадры) : 0.141
Размер потока : 1,59 Гбайт (79%)
Default : Да
Forced : Нет

Аудио #1
Идентификатор : 2
Формат : AC-3
Формат/Информация : Audio Coding 3
Расширение режима : CM (complete main)
Параметр Endianness формата : Big
Идентификатор кодека : A_AC3
Продолжительность : 1 ч. 9 м.
Вид битрейта : Постоянный
Битрейт : 384 Кбит/сек
Каналы : 2 канала
Расположение каналов : Front: L R
Частота : 48,0 КГц
Битовая глубина : 16 бит
Метод сжатия : С потерями
Размер потока : 192 Мбайт (9%)
Default : Да
Forced : Нет

Аудио #2
Идентификатор : 3
Формат : AC-3
Формат/Информация : Audio Coding 3
Расширение режима : CM (complete main)
Параметр Endianness формата : Big
Идентификатор кодека : A_AC3
Продолжительность : 1 ч. 9 м.
Вид битрейта : Постоянный
Битрейт : 384 Кбит/сек
Каналы : 6 каналов
Расположение каналов : Front: L C R, Side: L R, LFE
Частота : 48,0 КГц
Битовая глубина : 16 бит
Метод сжатия : С потерями
Размер потока : 192 Мбайт (9%)
Default : Да
Forced : Нет



Скачать Лесной.патруль.Pelle.Politibil.på.sporet.(Расмус.А.Сивертсен).[2013.мультфильм.приключения.WEB-DL].[720p].[Dub].[Чистый.звук].torrent без регистрации
Золото ЗОЛОТАЯ РАЗДАЧА! СКАЧАННОЕ НЕ ЗАСЧИТЫВАЕТСЯ! Золото
Дата: Зарегистрирован   [ Тип: внутренний ] Как тут cкачать?
MAGNET ссылка
MAGNET ссылка


Скачать .torrent

11 KB

Статус: проверено DHT
Скачан: торрент - 324 раз, раздача полностью - 739 раз
Размер: 2 GB
Оценка:  4 (Голосов: 1)
Поблагодарили: 9
Поделиться ссылкой на эту раздачу с друзьями:
В контактеFacebookОдноклассникиTwitterLivejournalМой МирLiveinternet
 

 
Показать сообщения:    


Вы не можете начинать темы
Вы не можете отвечать на сообщения
Вы не можете редактировать свои сообщения
Вы не можете удалять свои сообщения
Вы не можете голосовать в опросах
Вы не можете прикреплять файлы к сообщениям
Вы можете скачивать файлы