Loading...
Error

Скачать Письмо Дракуле / Dear Dracula (Чад Ван Де Кер) [2012, мультфильм, семейный, HDTV] [720p] [Dub] торрент без регистрации

Статистика раздачи
Размер:  1,32 GB   |    Скачан:  217 раз
Сидов:  1  [  0 KB/s  ]  
 
 
 
Автор Сообщение

МихаНЕзатор

[] 

Информация о фильме
Название: Письмо Дракуле
Оригинальное название: Dear Dracula
Год выхода: 2012
Жанр: мультфильм, семейный
Режиссер: Чад Ван Де Кер


В ролях: Рэй Лиотта, Эмилио Эстевес, Эриель Винтер, Исаак Уилсон, Трой Бэйкер, Нэйтан Гэмбл…



О фильме: Мальчик Сэм обожает рассказывать страшные истории и знает толк в розыгрышах. В канун праздника Хэллоуин он пишет письмо своему кумиру, графу Дракуле, и приглашает его в гости. Сэм мечтает от души повеселиться в компании вампира и до смерти напугать всех своих соседей. Наконец, в ночь празднования таинственный граф появляется на пороге дома мальчишки. Восторгу Сэма нет предела! Но вдруг выясняется, что самый опасный вампир всех времен не в состоянии внушить страх даже трехлетней девчонке!







Страна: США
Студия: Kickstart Productions
Продолжительность: 00:43:15
Перевод: Дублированный

Файл
Кодек: h.264 (MKV)
Качество: HDTV 720p
Видео: AVC, 1280 x 720, ~4093 kbps
Звук: AC-3, 2 ch, 192 kbps
Субтитры: нет



АНОНСЫ ПОПУЛЯРНЫХ РАЗДАЧ
Общее
Уникальный идентификатор : 168348648403719580577546155723716462494 (0x7EA6C532C2870C1E037BA147C20E879E)
Полное имя : F:Письмо Дракуле Dear Dracula (2012)Письмо Дракуле Dear Dracula (2012) HDTV 720p.mkv
Формат : Matroska
Версия формата : Version 2
Размер файла : 1,32 Гбайт
Продолжительность : 43 м.
Режим общего битрейта : Переменный
Общий поток : 4372 Кбит/сек
Программа кодирования : Lavf51.12.1
Библиотека кодирования : Lavf51.12.1

Видео
Идентификатор : 1
Формат : AVC
Формат/Информация : Advanced Video Codec
Профиль формата : Baseline@L3.1
Параметр CABAC формата : Нет
Параметр ReFrames формата : 1 кадр
Параметр GOP формата : M=1, N=12
Идентификатор кодека : V_MPEG4/ISO/AVC
Продолжительность : 43 м.
Вид битрейта : Переменный
Битрейт : 4093 Кбит/сек
Максимальный битрейт : 6000 Кбит/сек
Ширина : 1280 пикселей
Высота : 720 пикселей
Соотношение сторон : 16:9
Режим частоты кадров : Постоянный
Частота кадров : 25,000 кадров/сек
Частота кадров в оригинале : 24,000 кадра/сек
Цветовое пространство : YUV
Субдискретизация насыщенности : 4:2:0
Битовая глубина : 8 бит
Тип развёртки : Прогрессивная
Бит/(Пиксели*Кадры) : 0.178
Размер потока : 1,24 Гбайт (94%)
Default : Да
Forced : Нет

Аудио
Идентификатор : 2
Формат : AC-3
Формат/Информация : Audio Coding 3
Расширение режима : CM (complete main)
Параметр Endianness формата : Big
Идентификатор кодека : A_AC3
Продолжительность : 43 м.
Вид битрейта : Постоянный
Битрейт : 192 Кбит/сек
Каналы : 2 канала
Расположение каналов : Front: L R
Частота : 48,0 КГц
Битовая глубина : 16 бит
Метод сжатия : С потерями
Размер потока : 59,4 Мбайт (4%)
Default : Да
Forced : Нет



Скачать Письмо.Дракуле.Dear.Dracula.(Чад.Ван.Де.Кер).[2012.мультфильм.семейный.HDTV].[720p].[Dub].torrent без регистрации
Золото ЗОЛОТАЯ РАЗДАЧА! СКАЧАННОЕ НЕ ЗАСЧИТЫВАЕТСЯ! Золото
Дата: Зарегистрирован   [ Тип: внутренний ] Как тут cкачать?
MAGNET ссылка
MAGNET ссылка


Скачать .torrent

14 KB

Статус: проверено DHT
Скачан: торрент - 217 раз, раздача полностью - 351 раз
Размер: 1,32 GB
Оценка:  5 (Голосов: 2)
Поблагодарили: 10
Поделиться ссылкой на эту раздачу с друзьями:
В контактеFacebookОдноклассникиTwitterLivejournalМой МирLiveinternet
 

 
Показать сообщения:    


Вы не можете начинать темы
Вы не можете отвечать на сообщения
Вы не можете редактировать свои сообщения
Вы не можете удалять свои сообщения
Вы не можете голосовать в опросах
Вы не можете прикреплять файлы к сообщениям
Вы можете скачивать файлы