Loading...
Error

Скачать Лего. Фильм / The Lego Movie (Фил Лорд, Крис Миллер, Крис МакКэй) [2014, мультфильм, боевик, комедия BDRip] [720p] [Dub (Rus+Ukr)] [Лицензия]+[Eng]+[Sub (Rus, Ukr, Eng)] торрент без регистрации

Статистика раздачи
Размер:  5,2 GB   |    Скачан:  422 раза
Сидов:  1  [  0 KB/s  ]  
 
 
 
Автор Сообщение

МихаНЕзатор

[] 

Информация о фильме
Название: Лего. Фильм
Оригинальное название: The Lego Movie
Год выхода: 2014
Жанр: мультфильм, фэнтези, комедия, приключения, семейный
Режиссер: Фил Лорд, Кристофер Миллер


В ролях: Крис Прэтт, Уилл Феррелл, Элизабет Бэнкс, Уилл Арнетт, Лиам Нисон, Морган Фриман, Элисон Бри, Дэвид Берроуз, Энтони Дэниелс, Чарли Дэй


О фильме: Обычная лего-фигурка соглашается присоединиться к походу против злого лего-диктатора, планирующего склеить вместе всю вселенную…







Выпущено: Австралия, США, Дания / Warner Bros., Village Roadshow Pictures, LEGO
Продолжительность: 01:40:35
Озвучивание: Дублированное [Лицензия]



Файл
Формат: MKV
Качество: BDRip (720p)
Видео: MPEG-4 AVC, 4857 Кбит/с, 1280x534, 23.976 кадр/с
Аудио: Русский, украинский (AC3, 6 ch, 448 Кбит/с), английский (DTS, 6 ch, 1509 Кбит/с)
Субтитры: Русские, украинские, английские
Размер: 5.20 GB


АНОНСЫ ПОПУЛЯРНЫХ РАЗДАЧ


14.06.2014 г. торент обновлён, заменено видео и перевод!

General
Complete name : The.Lego.Movie.2014.BDRip.720p.mkv
Format : Matroska
Format version : Version 2
File size : 5.20 GiB
Duration : 1h 40mn
Overall bit rate : 7 400 Kbps
Movie name : Respector
Encoded date : UTC 2014-06-13 12:49:15
Writing application : mkvmerge v5.5.0 ('Healer') built on Apr 24 2012 23:47:03
Writing library : libebml v1.2.3 + libmatroska v1.3.0

Video
ID : 1
Format : AVC
Format/Info : Advanced Video Codec
Format profile : High@L4.1
Format settings, CABAC : Yes
Format settings, ReFrames : 12 frames
Codec ID : V_MPEG4/ISO/AVC
Duration : 1h 40mn
Bit rate : 4 847 Kbps
Width : 1 280 pixels
Height : 534 pixels
Display aspect ratio : 2.40:1
Frame rate mode : Constant
Frame rate : 23.976 fps
Color space : YUV
Chroma subsampling : 4:2:0
Bit depth : 8 bits
Scan type : Progressive
Bits/(Pixel*Frame) : 0.296
Stream size : 3.41 GiB (66%)
Writing library : x264 core 142 r2409+42 04be48a tMod [8-bit@4:2:0 X86_64]
Encoding settings : cabac=1 / ref=12 / deblock=1:-1:-1 / analyse=0x3:0x113 / me=umh / subme=11 / psy=1 / fade_compensate=0.00 / psy_rd=0.70:0.10 / mixed_ref=1 / me_range=32 / chroma_me=1 / trellis=2 / 8x8dct=1 / cqm=0 / deadzone=21,11 / fast_pskip=0 / chroma_qp_offset=-3 / threads=18 / lookahead_threads=3 / sliced_threads=0 / nr=0 / decimate=0 / interlaced=0 / bluray_compat=0 / constrained_intra=0 / fgo=0 / bframes=8 / b_pyramid=2 / b_adapt=2 / b_bias=0 / direct=3 / weightb=1 / open_gop=0 / weightp=2 / keyint=240 / keyint_min=24 / scenecut=40 / intra_refresh=0 / rc_lookahead=60 / rc=crf / mbtree=0 / crf=16.5000 / qcomp=0.70 / qpmin=0:0:0 / qpmax=69:69:69 / qpstep=4 / vbv_maxrate=40000 / vbv_bufsize=30000 / crf_max=0.0 / nal_hrd=none / filler=0 / ip_ratio=1.20 / pb_ratio=1.20 / aq=4:0.95 / aq-sensitivity=10.00 / aq-factor=1.00:1.00:1.00 / aq2=0 / aq3=0
Language : English
Default : Yes
Forced : No

Audio #1
ID : 2
Format : AC-3
Format/Info : Audio Coding 3
Mode extension : CM (complete main)
Format settings, Endianness : Big
Codec ID : A_AC3
Duration : 1h 40mn
Bit rate mode : Constant
Bit rate : 448 Kbps
Channel(s) : 6 channels
Channel positions : Front: L C R, Side: L R, LFE
Sampling rate : 48.0 KHz
Bit depth : 16 bits
Compression mode : Lossy
Stream size : 322 MiB (6%)
Title : CEE
Language : Russian
Default : Yes
Forced : Yes

Audio #2
ID : 3
Format : AC-3
Format/Info : Audio Coding 3
Mode extension : CM (complete main)
Format settings, Endianness : Big
Codec ID : A_AC3
Duration : 1h 40mn
Bit rate mode : Constant
Bit rate : 448 Kbps
Channel(s) : 6 channels
Channel positions : Front: L C R, Side: L R, LFE
Sampling rate : 48.0 KHz
Bit depth : 16 bits
Compression mode : Lossy
Stream size : 322 MiB (6%)
Title : CEE
Language : Ukrainian
Default : No
Forced : No

Audio #3
ID : 4
Format : DTS
Format/Info : Digital Theater Systems
Mode : 16
Format settings, Endianness : Big
Codec ID : A_DTS
Duration : 1h 40mn
Bit rate mode : Constant
Bit rate : 1 509 Kbps
Channel(s) : 6 channels
Channel positions : Front: L C R, Side: L R, LFE
Sampling rate : 48.0 KHz
Bit depth : 24 bits
Compression mode : Lossy
Stream size : 1.06 GiB (20%)
Language : English
Default : No
Forced : No

Text #1
ID : 5
Format : UTF-8
Codec ID : S_TEXT/UTF8
Codec ID/Info : UTF-8 Plain Text
Title : Forced [iTunes]
Language : Russian
Default : Yes
Forced : Yes

Text #2
ID : 6
Format : UTF-8
Codec ID : S_TEXT/UTF8
Codec ID/Info : UTF-8 Plain Text
Title : Forced [iTunes]
Language : Ukrainian
Default : No
Forced : No

Text #3
ID : 7
Format : UTF-8
Codec ID : S_TEXT/UTF8
Codec ID/Info : UTF-8 Plain Text
Title : Full [iTunes]
Language : Russian
Default : No
Forced : No

Text #4
ID : 8
Format : UTF-8
Codec ID : S_TEXT/UTF8
Codec ID/Info : UTF-8 Plain Text
Title : Full [iTunes]
Language : Ukrainian
Default : No
Forced : No

Text #5
ID : 9
Format : UTF-8
Codec ID : S_TEXT/UTF8
Codec ID/Info : UTF-8 Plain Text
Title : Full
Language : English
Default : No
Forced : No

Menu
00:00:00.000 : en:00:00:00.000
00:09:44.042 : en:00:09:44.042
00:18:18.389 : en:00:18:18.389
00:29:50.747 : en:00:29:50.747
00:38:48.034 : en:00:38:48.034
00:48:45.047 : en:00:48:45.047
00:57:49.424 : en:00:57:49.424
01:06:05.253 : en:01:06:05.253
01:16:24.205 : en:01:16:24.205
01:25:56.151 : en:01:25:56.151
01:32:57.322 : en:01:32:57.322



Скачать Лего.Фильм.The.Lego.Movie.(Фил.Лорд.Крис.Миллер.Крис.МакКэй).[2014.мультфильм.боевик.комедия.BDRip].[720p].[Dub.(Rus+Ukr)].[Лицензия]+[Eng]+[Sub.(Rus.Ukr.Eng)].torrent без регистрации
Золото ЗОЛОТАЯ РАЗДАЧА! СКАЧАННОЕ НЕ ЗАСЧИТЫВАЕТСЯ! Золото
Дата: Зарегистрирован   [ Тип: внутренний ] Как тут cкачать?
MAGNET ссылка
MAGNET ссылка


Скачать .torrent

26 KB

Статус: проверено DHT
Скачан: торрент - 422 раз, раздача полностью - 526 раз
Размер: 5,2 GB
Оценка:  5 (Голосов: 2)
Поблагодарили: 13
Поделиться ссылкой на эту раздачу с друзьями:
В контактеFacebookОдноклассникиTwitterLivejournalМой МирLiveinternet
 

 

МихаНЕзатор

[] 

Раздача обновлена.
 
Показать сообщения:    


Вы не можете начинать темы
Вы не можете отвечать на сообщения
Вы не можете редактировать свои сообщения
Вы не можете удалять свои сообщения
Вы не можете голосовать в опросах
Вы не можете прикреплять файлы к сообщениям
Вы можете скачивать файлы