Loading...
Error

Скачать Смертельный номер / Death Defying Acts (Джиллиан Армстронг) [2007, триллер, драма, мелодрама, BDRip] [1080p] [Dub]+[Оригинал]+[Sub]x2 торрент без регистрации

Статистика раздачи
Размер:  7,76 GB   |    Скачан:  119 раз
Сидов:  1  [  0 KB/s  ]  
 
 
 
Автор Сообщение

Marsianka

[] 

Информация о фильме
Название: Смертельный номер
Оригинальное название: Death Defying Acts
Год выхода: 2007
Жанр: триллер, драма, мелодрама
Режиссер: Джиллиан Армстронг
В ролях: Гай Пирс, Кэтрин Зета-Джонс, Тимоти Сполл, Сирша Ронан, Малкольм Шилдс, Лени Харпер, Ральф Райч, Оливия Дарнли, Энтони О’Доннелл, Билли Макколл

О фильме:
Во время гастролей по Британии в 1926 году великий иллюзионист Гарри Гудини вспыхивает страстью к жительнице Эдинбурга, женщине-медиуму. Она вызывается вступить в контакт с духом погибшей матери Гудини, за что тот посулил щедрую награду. Но ее способности — по большей степени шарлатанство, и в результате все идет совсем не по плану.



Страна: Великобритания, Австралия
Студия: Australian Film Finance Corporation (AFFC), BBC Films,
Продолжительность: 01:36:24
Перевод: Дублированный + Оригинал

Файл
Кодек: x264
Качество: BDRip 1080p (источник: HDTRACKER / Blu-ray Disc / 1080p)
Видео: 1920х800 (2.40:1), 10251 Kbps, 24.000 fps, 0.278 bit/pixel
Аудио #1: 48.0 kHz, AC3 Dolby Digital, 3/2 (L,C,R,l,r) + LFE ch, 640 kbps [Дубляж, МОСФИЛЬМ-мастер]
Аудио #2: 48.0 kHz, AC3 Dolby Digital, 3/2 (L,C,R,l,r) + LFE ch, 640 kbps [Оригинал, Английский]
Субтитры: Русские, английские
Семпл
x264 [info]: frame I:965 Avg QP:14.30 size:206305
x264 [info]: frame P:26712 Avg QP:16.98 size:103890
x264 [info]: frame B:111129 Avg QP:18.53 size: 39906
General
Unique ID : 250092071349549834107814992153991351693 (0xBC25FB1CB1C822699CC44094526E8D8D)
Complete name : E:Death.Defying.Acts.2007.x264.BDRip.1080p.mkv
Format : Matroska
Format version : Version 2
File size : 7.76 GiB
Duration : 1h 36mn
Overall bit rate : 11.5 Mbps
Encoded date : UTC 2014-03-29 07:29:11
Writing application : mkvmerge v5.8.0 ('No Sleep / Pillow') built on Sep 2 2012 15:37:04
Writing library : libebml v1.2.3 + libmatroska v1.3.0

Video
ID : 1
Format : AVC
Format/Info : Advanced Video Codec
Format profile : High@L4.1
Format settings, CABAC : Yes
Format settings, ReFrames : 5 frames
Codec ID : V_MPEG4/ISO/AVC
Duration : 1h 36mn
Bit rate : 10.3 Mbps
Width : 1 920 pixels
Height : 800 pixels
Display aspect ratio : 2.40:1
Frame rate mode : Constant
Frame rate : 24.000 fps
Color space : YUV
Chroma subsampling : 4:2:0
Bit depth : 8 bits
Scan type : Progressive
Bits/(Pixel*Frame) : 0.278
Stream size : 6.75 GiB (87%)
Writing library : x264 core 142 r2389 956c8d8
Encoding settings : cabac=1 / ref=5 / deblock=1:-3:-3 / analyse=0x3:0x133 / me=tesa / subme=11 / psy=1 / psy_rd=1.00:0.10 / mixed_ref=1 / me_range=32 / chroma_me=1 / trellis=2 / 8x8dct=1 / cqm=0 / deadzone=21,11 / fast_pskip=0 / chroma_qp_offset=-3 / threads=12 / lookahead_threads=1 / sliced_threads=0 / nr=0 / decimate=0 / interlaced=0 / bluray_compat=0 / constrained_intra=0 / bframes=6 / b_pyramid=2 / b_adapt=2 / b_bias=0 / direct=3 / weightb=1 / open_gop=0 / weightp=2 / keyint=240 / keyint_min=24 / scenecut=40 / intra_refresh=0 / rc=2pass / mbtree=0 / bitrate=10251 / ratetol=1.0 / qcomp=0.60 / qpmin=0 / qpmax=69 / qpstep=4 / cplxblur=20.0 / qblur=0.5 / ip_ratio=1.40 / pb_ratio=1.30 / aq=1:1.00
Language : English
Default : Yes
Forced : No

Audio #1
ID : 2
Format : AC-3
Format/Info : Audio Coding 3
Mode extension : CM (complete main)
Format settings, Endianness : Big
Codec ID : A_AC3
Duration : 1h 36mn
Bit rate mode : Constant
Bit rate : 640 Kbps
Channel(s) : 6 channels
Channel positions : Front: L C R, Side: L R, LFE
Sampling rate : 48.0 KHz
Bit depth : 16 bits
Compression mode : Lossy
Stream size : 441 MiB (6%)
Title : Дубляж, МОСФИЛЬМ-мастер
Language : Russian
Default : Yes
Forced : No

Audio #2
ID : 3
Format : AC-3
Format/Info : Audio Coding 3
Mode extension : CM (complete main)
Format settings, Endianness : Big
Codec ID : A_AC3
Duration : 1h 36mn
Bit rate mode : Constant
Bit rate : 640 Kbps
Channel(s) : 6 channels
Channel positions : Front: L C R, Side: L R, LFE
Sampling rate : 48.0 KHz
Bit depth : 16 bits
Compression mode : Lossy
Stream size : 441 MiB (6%)
Title : Оригинал, Английский
Language : English
Default : No
Forced : No

Text #1
ID : 4
Format : UTF-8
Codec ID : S_TEXT/UTF8
Codec ID/Info : UTF-8 Plain Text
Language : Russian
Default : No
Forced : No

Text #2
ID : 5
Format : UTF-8
Codec ID : S_TEXT/UTF8
Codec ID/Info : UTF-8 Plain Text
Language : English
Default : No
Forced : No

Menu
00:00:00.000 : en:
00:07:29.083 : en:
00:13:19.791 : en:
00:19:03.750 : en:
00:27:37.041 : en:
00:33:13.125 : en:
00:38:58.958 : en:
00:48:50.875 : en:
00:54:27.000 : en:
01:01:40.500 : en:
01:08:32.500 : en:
01:15:19.791 : en:
01:22:34.333 : en:
01:26:01.416 : en:
01:28:33.291 : en:



Скачать Смертельный.номер.Death.Defying.Acts.(Джиллиан.Армстронг).[2007.триллер.драма.мелодрама.BDRip].[1080p].[Dub]+[Оригинал]+[Sub]x2.torrent без регистрации
Золото ЗОЛОТАЯ РАЗДАЧА! СКАЧАННОЕ НЕ ЗАСЧИТЫВАЕТСЯ! Золото
Дата: Зарегистрирован   [ Тип: внутренний ] Как тут cкачать?
MAGNET ссылка
MAGNET ссылка


Скачать .torrent

20 KB

Статус: проверено DHT
Скачан: торрент - 119 раз, раздача полностью - 1 раз
Размер: 7,76 GB
Оценка:  - (Голосов: 0)
Поблагодарили: 0
Поделиться ссылкой на эту раздачу с друзьями:
В контактеFacebookОдноклассникиTwitterLivejournalМой МирLiveinternet
 

 
Показать сообщения:    


Вы не можете начинать темы
Вы не можете отвечать на сообщения
Вы не можете редактировать свои сообщения
Вы не можете удалять свои сообщения
Вы не можете голосовать в опросах
Вы не можете прикреплять файлы к сообщениям
Вы можете скачивать файлы