Loading...
Error

Скачать Темная Вода / Dark Water (Уолтер Саллес) [2005, триллер, драма, ужасы, BDRip] [1080p] [Dub]+[DVO]+[AVO]+[Оригинал]+[Sub]x2 торрент без регистрации

Статистика раздачи
Размер:  7,76 GB   |    Скачан:  124 раза
Сидов:  1  [  0 KB/s  ]  
 
 
 
Автор Сообщение

Marsianka

[] 

Информация о фильме
Название: Темная Вода
Оригинальное название: Dark Water
Год выхода: 2005
Жанр: триллер, драма, ужасы
Режиссер: Уолтер Саллес
В ролях: Дженнифер Коннелли, Джон С. Рейлли, Тим Рот, Дугрэй Скотт, Пит Постлетуэйт, Кэмрин Мэнхайм, Эриел Гэйд, Перла Хани-Жардин, Дебра Монк, Линда Имонд

О фильме:
Далиа Уильямс начинает новую жизнь. У нее новая квартира, новая работа, и она решает забыть про мужа, с которым не сложилось, и посвятить себя всю воспитанию дочери, Сеси. Но когда разлука превращается в битву за опекунство над дочкой, ситуация для Далии меняется к худшему. К тому же ее некрасивая, тесная и обветшалая квартира, похоже, живет своей жизнью. Загадочные звуки, постоянные подтеки темной воды и разные загадочные происшествия сводят ее с ума. Далиа решает узнать, кто стоит за всеми этими играми с сознанием. В то время, как она отчаянно ищет какую бы то ни было связь между загадками, темная вода потихоньку смыкается вокруг нее. Но Далии все равно, она не остановится ни перед чем, пока не узнает в чем дело…



Страна: США
Студия: Pandemonium Productions, Touchstone Pictures
Продолжительность: 01:44:41
Перевод: Дублированный (R5) + Профессиональный (двухголосый, закадровый) Tycoon-Studio + Авторский (одноголосый, закадровый) Юрий Немахов + Оригинал

Файл
Кодек: x264
Качество: BDRip 1080p (источник: HDCLUB / Blu-ray Remux / 1080p)
Видео: 1920х820 (2.35:1), 8500 Kbps, 23.976 fps, 0.225 bit/pixel
Аудио #1: 48.0 kHz, AC3 Dolby Digital, 2/0 (L,R) ch, 192 kbps [Дубляж, R5]
Аудио #2: 48.0 kHz, AC3 Dolby Digital, 3/2 (L,C,R,l,r) + LFE ch, 640 kbps [Двухголосый, Tycoon-Studio]
Аудио #3: 48.0 kHz, AC3 Dolby Digital, 3/2 (L,C,R,l,r) + LFE ch, 640 kbps [Авторский, Ю. Немахов]
Аудио #4: 48.0 kHz, AC3 Dolby Digital, 3/2 (L,C,R,l,r) + LFE ch, 640 kbps [Английский]
Субтитры: Русские, английские
Семпл
x264 [info]: frame I:1022 Avg QP:14.63 size:164091
x264 [info]: frame P:32626 Avg QP:17.01 size: 75442
x264 [info]: frame B:116941 Avg QP:19.20 size: 34575
General
Unique ID : 213689141974790343184730622038380844864 (0xA0C3081F960DF956AD0B8B65D5031740)
Complete name : E:Dark.Water.2005.x264.BDRip.1080p.mkv
Format : Matroska
Format version : Version 4 / Version 2
File size : 7.76 GiB
Duration : 1h 44mn
Overall bit rate : 10.6 Mbps
Encoded date : UTC 2010-02-22 21:41:31
Writing application : mkvmerge v5.9.0 ('On The Loose') built on Dec 9 2012 15:37:01
Writing library : libebml v1.3.0 + libmatroska v1.4.0

Video
ID : 1
Format : AVC
Format/Info : Advanced Video Codec
Format profile : High@L4.1
Format settings, CABAC : Yes
Format settings, ReFrames : 5 frames
Codec ID : V_MPEG4/ISO/AVC
Duration : 1h 44mn
Bit rate : 8 500 Kbps
Width : 1 920 pixels
Height : 820 pixels
Display aspect ratio : 2.35:1
Frame rate mode : Constant
Frame rate : 23.976 fps
Color space : YUV
Chroma subsampling : 4:2:0
Bit depth : 8 bits
Scan type : Progressive
Bits/(Pixel*Frame) : 0.225
Stream size : 6.06 GiB (78%)
Writing library : x264 core 129 r2245 bc13772
Encoding settings : cabac=1 / ref=5 / deblock=1:-2:-2 / analyse=0x3:0x133 / me=tesa / subme=11 / psy=1 / psy_rd=1.00:0.10 / mixed_ref=1 / me_range=32 / chroma_me=1 / trellis=2 / 8x8dct=1 / cqm=0 / deadzone=21,11 / fast_pskip=0 / chroma_qp_offset=-3 / threads=12 / lookahead_threads=2 / sliced_threads=0 / nr=0 / decimate=0 / interlaced=0 / bluray_compat=0 / constrained_intra=0 / bframes=5 / b_pyramid=2 / b_adapt=2 / b_bias=0 / direct=3 / weightb=1 / open_gop=0 / weightp=2 / keyint=240 / keyint_min=23 / scenecut=40 / intra_refresh=0 / rc_lookahead=60 / rc=2pass / mbtree=1 / bitrate=8500 / ratetol=1.0 / qcomp=0.60 / qpmin=0 / qpmax=69 / qpstep=4 / cplxblur=20.0 / qblur=0.5 / ip_ratio=1.40 / aq=1:1.00
Language : English
Default : Yes
Forced : No

Audio #1
ID : 2
Format : AC-3
Format/Info : Audio Coding 3
Mode extension : CM (complete main)
Format settings, Endianness : Big
Codec ID : A_AC3
Duration : 1h 44mn
Bit rate mode : Constant
Bit rate : 192 Kbps
Channel(s) : 2 channels
Channel positions : Front: L R
Sampling rate : 48.0 KHz
Bit depth : 16 bits
Compression mode : Lossy
Stream size : 144 MiB (2%)
Title : AC3 2.0ch 192 kbps - Дубляж, R5
Language : Russian
Default : Yes
Forced : No

Audio #2
ID : 3
Format : AC-3
Format/Info : Audio Coding 3
Mode extension : CM (complete main)
Format settings, Endianness : Big
Codec ID : A_AC3
Duration : 1h 44mn
Bit rate mode : Constant
Bit rate : 640 Kbps
Channel(s) : 6 channels
Channel positions : Front: L C R, Side: L R, LFE
Sampling rate : 48.0 KHz
Bit depth : 16 bits
Compression mode : Lossy
Stream size : 479 MiB (6%)
Title : AC3 5.1ch 640 kbps - Двухголосый, Tycoon-Studio
Language : Russian
Default : No
Forced : No

Audio #3
ID : 4
Format : AC-3
Format/Info : Audio Coding 3
Mode extension : CM (complete main)
Format settings, Endianness : Big
Codec ID : A_AC3
Duration : 1h 44mn
Bit rate mode : Constant
Bit rate : 640 Kbps
Channel(s) : 6 channels
Channel positions : Front: L C R, Side: L R, LFE
Sampling rate : 48.0 KHz
Bit depth : 16 bits
Compression mode : Lossy
Stream size : 479 MiB (6%)
Title : AC3 5.1ch 640 kbps - Авторский, Ю. Немахов
Language : Russian
Default : No
Forced : No

Audio #4
ID : 5
Format : AC-3
Format/Info : Audio Coding 3
Mode extension : CM (complete main)
Format settings, Endianness : Big
Codec ID : A_AC3
Duration : 1h 44mn
Bit rate mode : Constant
Bit rate : 640 Kbps
Channel(s) : 6 channels
Channel positions : Front: L C R, Side: L R, LFE
Sampling rate : 48.0 KHz
Bit depth : 16 bits
Compression mode : Lossy
Stream size : 479 MiB (6%)
Title : AC3 5.1ch 640 kbps - Английский
Language : English
Default : No
Forced : No

Text #1
ID : 6
Format : UTF-8
Codec ID : S_TEXT/UTF8
Codec ID/Info : UTF-8 Plain Text
Title : Русские
Language : Russian
Default : No
Forced : No

Text #2
ID : 7
Format : UTF-8
Codec ID : S_TEXT/UTF8
Codec ID/Info : UTF-8 Plain Text
Title : Английские
Language : English
Default : No
Forced : No

Menu
00:00:00.000 : en:Be Honest With Yourself
00:03:46.643 : en:540 Eastwood
00:07:58.978 : en:Another Puddle
00:11:27.102 : en:Ceci's Missing
00:15:01.150 : en:I want to Live Here
00:18:17.721 : en:Don't Get Your Hopes Up
00:21:48.765 : en:Call A Plumber
00:25:40.330 : en:This Building Is Falling Apart
00:30:18.399 : en:It's Really Coming Down
00:34:02.331 : en:New Student
00:38:49.994 : en:Nobody
00:43:01.161 : en:Since Daddy Left
00:46:18.859 : en:You're Lying
00:50:30.027 : en:Dirty Things
00:55:31.077 : en:Laundry
00:58:54.030 : en:Taking a Nap
01:02:52.393 : en:The Leak's Back
01:07:41.724 : en:Natasha
01:11:53.975 : en:That's Appalling
01:17:10.042 : en:Left Behind
01:20:29.908 : en:Assumptions
01:26:24.679 : en:Here She Is Now
01:31:28.483 : en:I'm Here
01:37:09.031 : en:End Credits
01:44:39.731 : en:01:44:39.731



Скачать Темная.Вода.Dark.Water.(Уолтер.Саллес).[2005.триллер.драма.ужасы.BDRip].[1080p].[Dub]+[DVO]+[AVO]+[Оригинал]+[Sub]x2.torrent без регистрации
Золото ЗОЛОТАЯ РАЗДАЧА! СКАЧАННОЕ НЕ ЗАСЧИТЫВАЕТСЯ! Золото
Дата: Зарегистрирован   [ Тип: внутренний ] Как тут cкачать?
MAGNET ссылка
MAGNET ссылка


Скачать .torrent

20 KB

Статус: проверено DHT
Скачан: торрент - 124 раз, раздача полностью - 1 раз
Размер: 7,76 GB
Оценка:  - (Голосов: 0)
Поблагодарили: 0
Поделиться ссылкой на эту раздачу с друзьями:
В контактеFacebookОдноклассникиTwitterLivejournalМой МирLiveinternet
 

 
Показать сообщения:    


Вы не можете начинать темы
Вы не можете отвечать на сообщения
Вы не можете редактировать свои сообщения
Вы не можете удалять свои сообщения
Вы не можете голосовать в опросах
Вы не можете прикреплять файлы к сообщениям
Вы можете скачивать файлы