Loading...
Error

Скачать Без изъяна / Flawless (Майкл Рэдфорд) [2007, триллер, драма, криминал, BDRip] [720p] [MVO]+[DVO]+[Оригинал]+[Sub] торрент без регистрации

Статистика раздачи
Размер:  3,77 GB   |    Скачан:  131 раз
Сидов:  1  [  0 KB/s  ]  
 
 
 
Автор Сообщение

Marsianka

[] 

Информация о фильме
Название: Без изъяна
Оригинальное название: Flawless
Год выхода: 2007
Жанр: триллер, драма, криминал
Режиссер: Майкл Рэдфорд
В ролях: Деми Мур, Майкл Кейн, Ламбер Вильсон, Натаниель Паркер, Шогэн Сеймур, Николас Джонс, Дэвид Баррасс, Джосс Экленд, Сайлас Карсон, Деррен Несбитт

О фильме:
Действие картины разворачивается в Лондоне образца 1960-го года. Майкл Кейн играет привратника, задумавшего обчистить ювелирную компанию, в которой он собственно говоря и трудоустроен. Он находит себе сообщницу в лице управляющей из Америки (Мур), которая помогает ему продумать и организовать всю операцию.



Страна: Великобритания, Люксембург
Студия: Blue Rider Entertainment, Delux Productions, Film Fund Luxembourg, Future Films
Продолжительность: 01:48:44
Перевод: Профессиональный многоголосый, любительский двухголосый

Файл
Кодек: MPEG-4 AVC
Качество: BDRip 720p
Видео: 3500 Кбит/с, 1280x544, 23.976 кадр/с
Звук: Русский (AC3, 2 ch, 384 Кбит/с), (AC3, 6 ch, 448 Кбит/с), английский (AC3, 6 ch, 640 Кбит/с)
Субтитры: Английские
Рип от StarbirS

Аудио#1: Russian: 48 kHz, AC3, 2 (L,R) + LFE ch, ~384 kbps avg - Профессиональный многоголосый (т/к Россия)
Аудио#2: Russian: 48 kHz, AC3, 3/2 (L,C,R,l,r) + LFE ch, ~448 kbps avg - Любительский двухголосый (Interfilm)
Аудио#3: English: 48 kHz, AC3, 3/2 (L,C,R,l,r) + LFE ch, ~640 kbps avg - Оригинал

Субтитры: Английские

За русский перевод "телеканала Россия" - спасибо miha2154.

x264 [info]: frame I:1642 Avg QP:14.68 size: 89127
x264 [info]: frame P:30891 Avg QP:17.42 size: 36008
x264 [info]: frame B:123876 Avg QP:19.27 size: 12845
Формат : Matroska
Версия формата : Version 2
Размер файла : 3,77 Гбайт
Продолжительность : 1 ч. 48 м.
Общий поток : 4969 Кбит/сек
Название фильма : Flawless.2007.x264.BDRip.(720p)
Дата кодирования : UTC 2015-03-18 14:37:27
Программа кодирования : mkvmerge v7.7.0 ('Six Voices') 64bit built on Feb 28 2015 23:39:33
Библиотека кодирования : libebml v1.3.1 + libmatroska v1.4.2

Видео
Идентификатор : 1
Формат : AVC
Формат/Информация : Advanced Video Codec
Профиль формата : High@L4.1
Параметр CABAC формата : Да
Параметр ReFrames формата : 12 кадров
Идентификатор кодека : V_MPEG4/ISO/AVC
Продолжительность : 1 ч. 48 м.
Битрейт : 3500 Кбит/сек
Ширина : 1280 пикселей
Высота : 544 пикселя
Соотношение сторон : 2,35:1
Режим частоты кадров : Постоянный
Частота кадров : 23,976 кадра/сек
Цветовое пространство : YUV
Субдискретизация насыщенности : 4:2:0
Битовая глубина : 8 бит
Тип развёртки : Прогрессивная
Бит/(Пиксели*Кадры) : 0.210
Размер потока : 2,58 Гбайт (68%)
Библиотека кодирования : x264 core 144 r2525 40bb568
Настройки программы : cabac=1 / ref=12 / deblock=1:-3:-3 / analyse=0x3:0x133 / me=umh / subme=10 / psy=1 / psy_rd=1.10:0.00 / mixed_ref=1 / me_range=32 / chroma_me=1 / trellis=2 / 8x8dct=1 / cqm=0 / deadzone=21,11 / fast_pskip=0 / chroma_qp_offset=-2 / threads=12 / lookahead_threads=2 / sliced_threads=0 / nr=0 / decimate=1 / interlaced=0 / bluray_compat=0 / constrained_intra=0 / bframes=9 / b_pyramid=2 / b_adapt=2 / b_bias=0 / direct=3 / weightb=1 / open_gop=1 / weightp=2 / keyint=240 / keyint_min=23 / scenecut=40 / intra_refresh=0 / rc=2pass / mbtree=0 / bitrate=3500 / ratetol=1.0 / qcomp=0.70 / qpmin=0 / qpmax=69 / qpstep=4 / cplxblur=20.0 / qblur=0.5 / ip_ratio=1.40 / pb_ratio=1.30 / aq=1:0.90
Язык : English
Default : Да
Forced : Нет

Аудио #1
Идентификатор : 2
Формат : AC-3
Формат/Информация : Audio Coding 3
Профиль формата : Dolby Digital
Расширение режима : CM (complete main)
Параметр Endianness формата : Big
Идентификатор кодека : A_AC3
Продолжительность : 1 ч. 48 м.
Вид битрейта : Постоянный
Битрейт : 384 Кбит/сек
Каналы : 2 канала
Расположение каналов : Front: L R
Частота : 48,0 КГц
Битовая глубина : 16 бит
Метод сжатия : С потерями
Размер потока : 299 Мбайт (8%)
Заголовок : Профессиональный многоголосый (т/к Россия)
Язык : Russian
Default : Да
Forced : Нет

Аудио #2
Идентификатор : 3
Формат : AC-3
Формат/Информация : Audio Coding 3
Расширение режима : CM (complete main)
Параметр Endianness формата : Big
Идентификатор кодека : A_AC3
Продолжительность : 1 ч. 48 м.
Вид битрейта : Постоянный
Битрейт : 448 Кбит/сек
Каналы : 6 каналов
Расположение каналов : Front: L C R, Side: L R, LFE
Частота : 48,0 КГц
Битовая глубина : 16 бит
Метод сжатия : С потерями
Размер потока : 348 Мбайт (9%)
Заголовок : Любительский двухголосый (Interfilm)
Язык : Russian
Default : Нет
Forced : Нет

Аудио #3
Идентификатор : 4
Формат : AC-3
Формат/Информация : Audio Coding 3
Расширение режима : CM (complete main)
Параметр Endianness формата : Big
Идентификатор кодека : A_AC3
Продолжительность : 1 ч. 48 м.
Вид битрейта : Постоянный
Битрейт : 640 Кбит/сек
Каналы : 6 каналов
Расположение каналов : Front: L C R, Side: L R, LFE
Частота : 48,0 КГц
Битовая глубина : 16 бит
Метод сжатия : С потерями
Размер потока : 498 Мбайт (13%)
Заголовок : Flawless.2007.x264.BDRip.(720p).by.StarbirS
Язык : English
Default : Нет
Forced : Нет

Текст
Идентификатор : 5
Формат : UTF-8
Идентификатор кодека : S_TEXT/UTF8
Идентификатор кодека/Информация : UTF-8 Plain Text
Язык : English
Default : Да
Forced : Нет

Меню
00:00:00.000 : en:00:00:00.000
00:06:25.760 : en:00:06:25.760
00:10:28.753 : en:00:10:28.753
00:17:18.037 : en:00:17:18.037
00:21:37.796 : en:00:21:37.796
00:27:19.680 : en:00:27:19.680
00:32:31.116 : en:00:32:31.116
00:38:58.795 : en:00:38:58.795
00:43:49.168 : en:00:43:49.168
00:48:47.842 : en:00:48:47.842
00:54:12.332 : en:00:54:12.332
00:59:18.430 : en:00:59:18.430
01:04:54.307 : en:01:04:54.307
01:11:43.132 : en:01:11:43.132
01:16:02.808 : en:01:16:02.808
01:21:22.878 : en:01:21:22.878
01:28:08.492 : en:01:28:08.492
01:32:31.212 : en:01:32:31.212
01:38:01.876 : en:01:38:01.876
01:42:38.319 : en:01:42:38.319



Скачать Без.изъяна.Flawless.(Майкл.Рэдфорд).[2007.триллер.драма.криминал.BDRip].[720p].[MVO]+[DVO]+[Оригинал]+[Sub].torrent без регистрации
Золото ЗОЛОТАЯ РАЗДАЧА! СКАЧАННОЕ НЕ ЗАСЧИТЫВАЕТСЯ! Золото
Дата: Зарегистрирован   [ Тип: внутренний ] Как тут cкачать?
MAGNET ссылка
MAGNET ссылка


Скачать .torrent

19 KB

Статус: проверено DHT
Скачан: торрент - 131 раз, раздача полностью - 9 раз
Размер: 3,77 GB
Оценка:  - (Голосов: 0)
Поблагодарили: 1
Поделиться ссылкой на эту раздачу с друзьями:
В контактеFacebookОдноклассникиTwitterLivejournalМой МирLiveinternet
 

 
Показать сообщения:    


Вы не можете начинать темы
Вы не можете отвечать на сообщения
Вы не можете редактировать свои сообщения
Вы не можете удалять свои сообщения
Вы не можете голосовать в опросах
Вы не можете прикреплять файлы к сообщениям
Вы можете скачивать файлы