Loading...
Error

Скачать Лабиринт Фавна / El laberinto del fauno (Гильермо Дель Торо) [2006, фэнтези, драма, военный, BDRip] [720p] [Dub] торрент без регистрации

Статистика раздачи
Размер:  4,2 GB   |    Скачан:  195 раз
Сидов:  18  [  0 KB/s  ]   Личеров:  1  [  0 KB/s  ]  
 
 
 
Автор Сообщение

Marsianka

[] 

Информация о фильме
Название: Лабиринт Фавна
Оригинальное название: El laberinto del fauno
Год выхода: 2006
Жанр: фэнтези, драма, военный
Режиссер: Гильермо Дель Торо
В ролях: Ивана Бакеро, Сержи Лопес, Марибель Верду, Даг Джонс, Ариадна Хиль, Алекс Ангуло, Маноло Соло, Сесар Веа, Рожер Казамажор, Иван Массаге

О фильме:
Испания, 1944 год. Группа повстанцев сражается с фашистами в горных лесах северной Наварры. Офелия — 10-летняя одинокая и мечтательная девочка — переезжает со своей беременной матерью Кармен в военный лагерь отчима капитана Видаля. Видаль — высокомерный и жестокий офицер армии Франко, который должен очистить район от повстанцев любой ценой. Офелия, увлеченная волшебными сказками, обнаруживает старинный заброшенный лабиринт неподалеку от дома.

Фея проводит ее в центр лабиринта, где она встречает Фавна, хозяина подземелья. Фавн утверждает, что знает её истинную судьбу и её тайное предназначение. Оказывается Офелия — пропавшая принцесса волшебного королевства, которую многие века разыскивает ее отец. Фавн предлагает ей возможность вернуться в волшебное королевство. Но для начала она должна пройти три испытания до наступления полнолуния. Никто не должен узнать об этом.

Время на исходе — как для Офелии, так и для отряда повстанцев. Всем придется противостоять трудностям и жестокости на пути к свободе.



Страна: Испания, Мексика, США
Студия: Esperanto Filmoj, Estudios Piccaso, OMM, Sententia Entertainment, Telecinco, Tequila Gang
Продолжительность: 01:54:05
Перевод: Профессиональный (полное дублирование)

Файл
Кодек: MKV, H.264
Качество: BDRip 720p
Видео: h264 (High), yuv420p, 1280x720 [PAR 1:1 DAR 16:9], 4818 kbps, 23.98 fps, 23.98 tbr, 1k tbn, 180k tbc
Звук: AC3, 48000 Hz, 5.1, s16, 448 kb/s
* После недельного проката фильма в Мексике, кинотеатры были вынуждены помещать на постеры фильма надписи, предупреждающие о насилии в фильме, чтобы родители не допускали к сеансу своих маленьких детей.
* На Каннском кинофестивале этот фильм наградили 22-х минутными аплодисментами.
* В 2007 году фильм стал одним из немногих фильмов-фэнтези за всю историю проведения церемонии Оскар, представленным в номинации лучший фильм на иностранном языке.
* Фильм был запрещен к показу в Малайзии, как не прошедший цензуру из-за сцен, содержащих насилие.
* Разрушенный город, показанный в начале фильма, на самом деле называется Бельчите. В нем также проходили съемки картины Терри Гиллиама «Приключения барона Мюнхаузена» (1988). Бельчите был разрушен во время гражданской войны в Испании и с тех пор никогда не реконструировался.
* Гильермо Дель Торо известен тем, что ведет книжки, в которых помечает свои идеи в виде рисунков и заметок для последующего их воплощения в фильмах. Однажды он оставил книжку с идеями к «Лабиринту Фавна», которую он создавал годами, на заднем сидении такси и думал, что проект похоронен. Но когда шофер нашел эту книжку, он сразу понял, насколько она важна для режиссера и разыскал Гильермо, чтобы вернуть тому записи. Дель Торо был убежден, что это небесное благословение и в полной решительности завершил съемки ленты.
* Даг Джонс был единственным американцем, задействованным на съемочной площадке и единственным, кто совершенно не говорил по-испански.
* Дагу Джонсу приходилось зазубривать не только свои реплики на испанском (на языке, котором он абсолютно не говорит), но также и реплики Офелии, чтобы знать когда произносить свои следующие слова.
* Ноги фавна не были созданы на компьютере. Находка Гильермо Дель Торо заключалась в том, что настоящие ноги актера, удаленные в цифровом режиме, заменяли кукольные.
* Ивана Бакеро, исполнительница роли девочки, была слишком взрослой для исполнения своего персонажа, изначально созданного 8-летней девочкой. Но Дель Торо настолько вдохновился ее игрой, что решил приспособить сценарий для 11 летней актрисы.
* Актёру Дагу Джоунсу требовалось четыре часа, чтобы забраться в костюм Бледного Человека. Смотреть Джоунсу приходилось через носовые отверстия своего героя, так как на лице персонажа нет глаз.
* В одном из интервью Гильермо Дель Торо намекнул, что по его замыслу и Бледный Человек, и Жаба — это воплощения Фавна, который проводит Офелию через череду испытаний для выявления её нравственной цельности. Намёком на это обстоятельство в фильме является то, что в финале сказочной части появляются все три феи, две из которых якобы погибли от рук Бледного Человека.
General
Unique ID : 319553630023951567026641606523882792077 (0xF067CA5D8EC3D537A50B09787123648D)
Complete name : /mnt/router/Torrents/El.laberinto.del.fauno.2006.BDRip.720p.FullHD.Rus.Dub.UAGet.mkv
Format : Matroska
File size : 4.20 GiB
Duration : 1h 54mn
Overall bit rate : 5 268 Kbps
Movie name : Лабиринт Фавна / El laberinto del fauno (2006) BDRip 720p -=UAGet=-
Encoded date : UTC 2013-08-16 07:21:22
Writing application : mkvmerge v4.8.0 ('I Got The...') сборка от Aug 22 2011 13:16:28
Writing library : libebml v1.2.0 + libmatroska v1.1.0

Video
ID : 1
Format : AVC
Format/Info : Advanced Video Codec
Format profile : High@L4.1
Format settings, CABAC : Yes
Format settings, ReFrames : 8 frames
Format settings, GOP : M=10, N=24
Codec ID : V_MPEG4/ISO/AVC
Duration : 1h 54mn
Bit rate : 4 818 Kbps
Width : 1 280 pixels
Height : 720 pixels
Display aspect ratio : 16:9
Frame rate mode : Variable
Frame rate : 23.976 fps
Color space : YUV
Chroma subsampling : 4:2:0
Bit depth : 8 bits
Scan type : Progressive
Bits/(Pixel*Frame) : 0.218
Stream size : 3.76 GiB (90%)
Title : Лабиринт Фавна / El laberinto del fauno (2006) BDRip 720p -=UAGet=-
Writing library : x264 core 130 r2273 b3065e6
Encoding settings : cabac=1 / ref=9 / deblock=1:-3:-3 / analyse=0x3:0x133 / me=umh / subme=11 / psy=1 / psy_rd=1.00:0.20 / mixed_ref=1 / me_range=32 / chroma_me=1 / trellis=2 / 8x8dct=1 / cqm=0 / deadzone=21,11 / fast_pskip=0 / chroma_qp_offset=-3 / threads=6 / lookahead_threads=1 / sliced_threads=0 / nr=0 / decimate=1 / interlaced=0 / bluray_compat=0 / constrained_intra=0 / bframes=9 / b_pyramid=1 / b_adapt=2 / b_bias=0 / direct=3 / weightb=1 / open_gop=0 / weightp=2 / keyint=240 / keyint_min=24 / scenecut=40 / intra_refresh=0 / rc=2pass / mbtree=0 / bitrate=4818 / ratetol=1.0 / qcomp=1.00 / qpmin=0 / qpmax=69 / qpstep=4 / cplxblur=20.0 / qblur=0.5 / ip_ratio=1.40 / pb_ratio=1.30 / aq=2:0.60
Color primaries : BT.709-5, BT.1361, IEC 61966-2-4, SMPTE RP177
Transfer characteristics : BT.709-5, BT.1361
Matrix coefficients : BT.709-5, BT.1361, IEC 61966-2-4 709, SMPTE RP177

Audio
ID : 2
Format : AC-3
Format/Info : Audio Coding 3
Mode extension : CM (complete main)
Codec ID : A_AC3
Duration : 1h 54mn
Bit rate mode : Constant
Bit rate : 448 Kbps
Channel(s) : 6 channels
Channel positions : Front: L C R, Side: L R, LFE
Sampling rate : 48.0 KHz
Bit depth : 16 bits
Compression mode : Lossy
Stream size : 366 MiB (9%)
Title : Русский (профессиональный дублированный)
Language : Russian
Релиз от:



Скачать Лабиринт.Фавна.El.laberinto.del.fauno.(Гильермо.Дель.Торо).[2006.фэнтези.драма.военный.BDRip].[720p].[Dub].torrent без регистрации
Золото ЗОЛОТАЯ РАЗДАЧА! СКАЧАННОЕ НЕ ЗАСЧИТЫВАЕТСЯ! Золото
Дата: Зарегистрирован   [ Тип: внешний ] Как тут cкачать?
MAGNET ссылка
MAGNET ссылка


Скачать .torrent

170 KB

Статус: проверено DHT
Скачан: торрент - 195 раз, раздача полностью - 428 раз
Размер: 4,2 GB
Оценка:  - (Голосов: 0)
Поблагодарили: 1
Поделиться ссылкой на эту раздачу с друзьями:
В контактеFacebookОдноклассникиTwitterLivejournalМой МирLiveinternet
 

 
Показать сообщения:    


Вы не можете начинать темы
Вы не можете отвечать на сообщения
Вы не можете редактировать свои сообщения
Вы не можете удалять свои сообщения
Вы не можете голосовать в опросах
Вы не можете прикреплять файлы к сообщениям
Вы можете скачивать файлы