Loading...
Error

Скачать Гвардия (Сезон 01-02, серии 01-06 из 06) (Алексей Шапарев) [2015-2017, драма, военный, SATRip] торрент без регистрации

Статистика раздачи
Размер:  3,1 GB   |    Скачан:  251 раз
Сидов:  1  [  0 KB/s  ]  
 
 
 
Автор Сообщение

leon030982

[] 

Гвардия


Год выпуска: 2015-2017
Жанр: драма, военный
Выпущено: Украина, телеканал 2+2 и компания "Президент фильм"
Продолжительность: 6х ~ 00:41:00
Язык: Украинский, русский

Режиссер: Алексей Шапарев

В ролях: Алексей Горбунов, Вано Янтбелидзе, Ахтем Сеитаблаев, Дмитрий Тубольцев, Богдан Юсипчук, Дмитрий Ступка, Анна Топчий, Денис Мартынов, Денис Гранчак, Виктория Токманенко, Константин Шафоренко, Римма Зюбина

Описание: Эта драма рассказывает о первых добровольцах, которые после кровавых событий на Майдане записались в ряды Национальной гвардии Украины. То, что происходит на Украине сегодня, касается каждого из нас, и неважно, далеко или близко мы находимся от зоны боевых действий. Первый батальон Нацгвардии объединил тех, кто по-настоящему решил пройти школу бойца. Все эти люди были разными по возрасту, по социальному статусу, семейному положению, но у них была единая общая цель — «Украина превыше всего!» И вот кадровые военные и новобранцы, которые ранее стояли по разные стороны баррикад, теперь объединились для того, чтобы стать единой командой, способной защитить свою страну…



Качество: SATRip
Формат: AVI
Видео кодек: XvID
Аудио кодек: AC3
Видео: 720x400 (1.80:1), 25 fps, XviD build 73 ~1500 kbps avg
Аудио: 48 kHz, AC3 Dolby Digital, 2/0 (L,R) ch, ~192 kbps
General
Complete name : E:\Gvardija.2015.XviD.SATRip.by.GeneralFilm\Serija.05.avi
Format : AVI
Format/Info : Audio Video Interleave
File size : 556 MiB
Duration : 45 min 12 s
Overall bit rate : 1 720 kb/s
Writing application : VirtualDubMod 1.5.10.3 | www.virtualdub-fr.org || (build 2550/release)
Writing library : VirtualDubMod build 2550/release

Video
ID : 0
Format : MPEG-4 Visual
Format profile : Advanced Simple@L5
Format settings : BVOP1 / Custom Matrix
Format settings, BVOP : 1
Format settings, QPel : No
Format settings, GMC : No warppoints
Format settings, Matrix : Custom
Codec ID : XVID
Codec ID/Hint : XviD
Duration : 45 min 12 s
Source duration : 17 min 26 s
Bit rate : 1 616 kb/s
Width : 720 pixels
Height : 400 pixels
Display aspect ratio : 16:9
Frame rate : 25.000 FPS
Color space : YUV
Chroma subsampling : 4:2:0
Bit depth : 8 bits
Scan type : Progressive
Compression mode : Lossy
Bits/(Pixel*Frame) : 0.224
Stream size : 202 MiB (36%)
Writing library : XviD 73

Audio
ID : 1
Format : AC-3
Format/Info : Audio Coding 3
Format settings, Endianness : Big
Codec ID : 2000
Duration : 45 min 12 s
Source duration : 17 min 27 s
Bit rate mode : Constant
Bit rate : 192 kb/s
Channel(s) : 2 channels
Channel positions : Front: L R
Sampling rate : 48.0 kHz
Frame rate : 31.250 FPS (1536 SPF)
Bit depth : 16 bits
Compression mode : Lossy
Stream size : 24.0 MiB (4%)
Alignment : Split accross interleaves
Interleave, duration : 40 ms (1.00 video frame)
Interleave, preload duratio : 500 ms
Service kind : Complete Main



Скачать Гвардия.(Сезон.01-02.серии.01-06.из.06).(Алексей.Шапарев).[2015-2017.драма.военный.SATRip].torrent без регистрации
Золото ЗОЛОТАЯ РАЗДАЧА! СКАЧАННОЕ НЕ ЗАСЧИТЫВАЕТСЯ! Золото
Дата: Зарегистрирован   [ Тип: внутренний ] Как тут cкачать?
MAGNET ссылка
MAGNET ссылка


Скачать .torrent

16 KB

Статус: проверено DHT
Скачан: торрент - 251 раз, раздача полностью - 44 раз
Размер: 3,1 GB
Оценка:  3 (Голосов: 4)
Поблагодарили: 5
Поделиться ссылкой на эту раздачу с друзьями:
В контактеFacebookОдноклассникиTwitterLivejournalМой МирLiveinternet
 

 
Показать сообщения:    


Вы не можете начинать темы
Вы не можете отвечать на сообщения
Вы не можете редактировать свои сообщения
Вы не можете удалять свои сообщения
Вы не можете голосовать в опросах
Вы не можете прикреплять файлы к сообщениям
Вы можете скачивать файлы