Loading...
Error

Скачать Сукияки Вестерн Джанго / Sukiyaki Western Django (Такаси Миике) [2007, боевик, вестерн, BDRip] [1080p] [DVO]+[Оригинал]+[Sub]x2 торрент без регистрации

Статистика раздачи
Размер:  7,74 GB   |    Скачан:  88 раз
Сидов:  1  [  0 KB/s  ]  
 
 
 
Автор Сообщение

Marsianka

[] 


Информация о фильме
Русское название: Сукияки Вестерн Джанго
Оригинальное название: Sukiyaki Western Django
Год выхода: 2007
Жанр: боевик, вестерн
Режиссер: Такаси Миике
Выпущено: Япония
Продолжительность: 02:00:34
Перевод: Профессиональный (двухголосый закадровый), Автоский (одноголосый закадровый)
В ролях: Хидеаки Ито, Масанобу Андо, Коити Сато, Каори Момои, Юсуке Исейа, Рэндзи Исибаси, Йошино Кимура, Квентин Тарантино, Такааки Исибаси, Теруюки Кагава
Сюжет фильма
Через несколько сот лет после печально знаменитой битвы в заливе Данноура (1185) в далекой японской горной деревушке нарастает напряжение. Одетая в белое банда Гэндзи (из клана Тайра) и одетая в красное банда Хэйкэ (из клана Минамото) вступили в жестокое противостояние, порожденное слухами о спрятанном золоте.
Когда в деревне появляется безымянный странник, обремененный темным прошлым, но мастерски владеющий искусством стрельбы, и Гэндзи, и Хэйкэ задают себе вопрос, на чью сторону он встанет. Битва за власть, предательство, похоть и любовь переплетаются, пропитывая землю кровью. Историческая война между кланами вновь обретает жизнь в формах «спагетти-вестерна».
Файл
Качество: BDRip 1080p (исходник Blu-ray Disc Remux)
Видео: 1920x828, 7675 Кбит/сек, 23,976 кадр/сек, AVC, x264, High@L4.1, 2.35:1, 0.201 Бит/[Пиксели*Кадры]+
;]Аудио 1: AC-3, 448 Кбит/сек, 6 канала(ов), 48,0 КГц - Двухголосый закадровый, П.Гланц и И.Королева / Русский
Аудио 2: AC-3, 448 Кбит/сек, 6 канала(ов), 48,0 КГц - Одноголосый закадровый, Ю.Сербин / Русский
Аудио 3: AC-3, 640 Кбит/сек, 6 канала(ов), 48,0 КГц - Оригинал / Английский
Субтитры: Русские | Полные, Английские | Полные
Форсированные субтитры: Нет
Чаптеры (Главы): Есть



Автор Рипа: Сообщество: мы в VK

Format : Matroska
Format version : Version 2
File size : 7.74 GiB
Duration : 2h 0mn
Overall bit rate : 9 196 Kbps
Movie name : Сукияки Вестерн Джанго.(2007).BDRip.1080p.[envy]
Encoded date : UTC 2015-09-04 08:47:19
Writing application : mkvmerge v5.8.0 ('No Sleep / Pillow') built on Sep 2 2012 15:37:04
Writing library : libebml v1.2.3 + libmatroska v1.3.0

Video
ID : 1
Format : AVC
Format/Info : Advanced Video Codec
Format profile : High@L4.1
Format settings, CABAC : Yes
Format settings, ReFrames : 5 frames
Codec ID : V_MPEG4/ISO/AVC
Duration : 2h 0mn
Bit rate : 7 675 Kbps
Width : 1 920 pixels
Height : 828 pixels
Display aspect ratio : 2.35:1
Frame rate mode : Constant
Frame rate : 23.976 fps
Color space : YUV
Chroma subsampling : 4:2:0
Bit depth : 8 bits
Scan type : Progressive
Bits/(Pixel*Frame) : 0.201
Stream size : 6.30 GiB (81%)
Title : Сукияки Вестерн Джанго.(2007).BDRip.1080p.[envy]
Writing library : x264 core 148 r2597 e86f3a1
Encoding settings : cabac=1 / ref=5 / deblock=1:-3:-3 / analyse=0x3:0x133 / me=umh / subme=11 / psy=1 / psy_rd=1.00:0.00 / mixed_ref=1 / me_range=48 / chroma_me=1 / trellis=2 / 8x8dct=1 / cqm=0 / deadzone=21,11 / fast_pskip=0 / chroma_qp_offset=-2 / threads=12 / lookahead_threads=2 / sliced_threads=0 / nr=0 / decimate=1 / interlaced=0 / bluray_compat=0 / constrained_intra=0 / bframes=8 / b_pyramid=2 / b_adapt=2 / b_bias=0 / direct=3 / weightb=1 / open_gop=0 / weightp=2 / keyint=240 / keyint_min=23 / scenecut=40 / intra_refresh=0 / rc=2pass / mbtree=0 / bitrate=7675 / ratetol=2.0 / qcomp=0.60 / qpmin=0 / qpmax=69 / qpstep=4 / cplxblur=20.0 / qblur=0.5 / ip_ratio=1.40 / pb_ratio=1.30 / aq=2:0.70
Language : English
Default : Yes
Forced : No

Audio #1
ID : 2
Format : AC-3
Format/Info : Audio Coding 3
Mode extension : CM (complete main)
Format settings, Endianness : Big
Codec ID : A_AC3
Duration : 2h 0mn
Bit rate mode : Constant
Bit rate : 448 Kbps
Channel(s) : 6 channels
Channel positions : Front: L C R, Side: L R, LFE
Sampling rate : 48.0 KHz
Compression mode : Lossy
Stream size : 386 MiB (5%)
Title : DVO P.Glanc i I.Koroleva
Language : Russian
Default : Yes
Forced : No

Audio #2
ID : 3
Format : AC-3
Format/Info : Audio Coding 3
Mode extension : CM (complete main)
Format settings, Endianness : Big
Codec ID : A_AC3
Duration : 2h 0mn
Bit rate mode : Constant
Bit rate : 448 Kbps
Channel(s) : 6 channels
Channel positions : Front: L C R, Side: L R, LFE
Sampling rate : 48.0 KHz
Compression mode : Lossy
Stream size : 386 MiB (5%)
Title : AVO Serbin
Language : Russian
Default : No
Forced : No

Audio #3
ID : 4
Format : AC-3
Format/Info : Audio Coding 3
Mode extension : CM (complete main)
Format settings, Endianness : Big
Codec ID : A_AC3
Duration : 2h 0mn
Bit rate mode : Constant
Bit rate : 640 Kbps
Channel(s) : 6 channels
Channel positions : Front: L C R, Side: L R, LFE
Sampling rate : 48.0 KHz
Compression mode : Lossy
Stream size : 552 MiB (7%)
Title : Eng
Language : English
Default : No
Forced : No

Text #1
ID : 5
Format : UTF-8
Codec ID : S_TEXT/UTF8
Codec ID/Info : UTF-8 Plain Text
Title : Rus full
Language : Russian
Default : No
Forced : No

Text #2
ID : 6
Format : UTF-8
Codec ID : S_TEXT/UTF8
Codec ID/Info : UTF-8 Plain Text
Title : Eng full
Language : English
Default : No
Forced : No

Menu
00:00:00.000 : :Chapter 01
00:12:02.887 : :Chapter 02
00:22:53.997 : :Chapter 03
00:31:34.225 : :Chapter 04
00:38:19.297 : :Chapter 05
00:48:57.100 : :Chapter 06
00:58:09.110 : :Chapter 07
01:04:01.212 : :Chapter 08
01:15:13.383 : :Chapter 09
01:24:49.751 : :Chapter 10
01:35:02.530 : :Chapter 11
01:51:36.564 : :Chapter 12




Скачать Сукияки.Вестерн.Джанго.Sukiyaki.Western.Django.(Такаси.Миике).[2007.боевик.вестерн.BDRip].[1080p].[DVO]+[Оригинал]+[Sub]x2.torrent без регистрации
Золото ЗОЛОТАЯ РАЗДАЧА! СКАЧАННОЕ НЕ ЗАСЧИТЫВАЕТСЯ! Золото
Дата: Зарегистрирован   [ Тип: внутренний ] Как тут cкачать?
MAGNET ссылка
MAGNET ссылка


Скачать .torrent

39 KB

Статус: проверено DHT
Скачан: торрент - 88 раз, раздача полностью - 4 раз
Размер: 7,74 GB
Оценка:  - (Голосов: 0)
Поблагодарили: 1
Поделиться ссылкой на эту раздачу с друзьями:
В контактеFacebookОдноклассникиTwitterLivejournalМой МирLiveinternet
 

 
Показать сообщения:    


Вы не можете начинать темы
Вы не можете отвечать на сообщения
Вы не можете редактировать свои сообщения
Вы не можете удалять свои сообщения
Вы не можете голосовать в опросах
Вы не можете прикреплять файлы к сообщениям
Вы можете скачивать файлы