Loading...
Error

Скачать Нэнси Дрю / Nancy Drew (Эндрю Флеминг) [2007, триллер, мелодрама, комедия, криминал, детектив, семейный, WEB-DL] [720p] [MVO]+[Оригинал]+[Sub]x7 торрент без регистрации

Статистика раздачи
Размер:  3,6 GB   |    Скачан:  108 раз

Полного источника не было: 20 минут

 
 
 
Автор Сообщение

Marsianka

[] 

Информация о фильме
Название: Нэнси Дрю
Оригинальное название: Nancy Drew
Год выхода: 2007
Жанр: триллер, мелодрама, комедия, криминал, детектив, семейный
Режиссер: Эндрю Флеминг
В ролях: Эмма Робертс, Крэйг Геллис, Рич Купер, Макс Тириот, Эми Брукнер, Кей Панабэйкер, Клифф Бемис, Тейт Донован, Дэвид Доути, Лаура Хэрринг

Описание: Нэнси Дрю, юная любительница детективов, вместе со своим отцом отправляется в Лос-Анджелес, где оказывается втянутой в цепь таинственных событий нераскрытого преступления, связанного со смертью красавицы-кинозвезды…



Страна: США
Продолжительность: 01:35:19
Перевод #1: Профессиональный (Многоголосый, Закадровый) (R5)
Перевод #2: Польский
Перевод #3: Английский (Оригинал)
Файл
Формат: MKV
Качество: WEB-DL 720p (Источник: Nancy.Drew.2007.720p.WEB-DL.DD5.1.H264-FGT)
Видео: 1280x532 (2.40:1), 25.000 fps, 4142 kbps, 0.243 bit/pixel
Аудио #1: AC-3, 6 ch, 384 kbps (Многоголосый)
Аудио #2: AC-3, 6 ch, 384 kbps (Польский)
Аудио #3: AC-3, 6 ch, 384 kbps (Английский Оригинал)
Субтитры: Русские (Полные), Польские (Полные), Латышские (Полные), Литовские (Полные), Эстонские (Полные), Украинские (Полные), Английские (Полные)
все дорожки и субтитры взяты с DVD-9 (R5)
General
Unique ID : 215402557799075007280918941252794485336 (0xA20D060BB77FD031A4EFCBA30D048A58)
Complete name : Nancy.Drew.2007.WEB.DL.720p.P.mkv
Format : Matroska
Format version : Version 2
File size : 3.60 GiB
Duration : 1h 35mn
Overall bit rate : 5 401 Kbps
Movie name : Нэнси Дрю / Nancy Drew (2007) WEB-DL 720p
Encoded date : UTC 2015-09-09 06:38:06
Writing application : mkvmerge v5.6.0 ('Kenya Kane') built on May 27 2012 16:44:04
Writing library : libebml v1.2.3 + libmatroska v1.3.0
Attachements : Cover.jpg

Video
ID : 1
Format : AVC
Format/Info : Advanced Video Codec
Format profile : Main@L3.1
Format settings, CABAC : No
Format settings, ReFrames : 2 frames
Format settings, GOP : N=1
Codec ID : V_MPEG4/ISO/AVC
Duration : 1h 35mn
Bit rate : 4 142 Kbps
Width : 1 280 pixels
Height : 532 pixels
Display aspect ratio : 2.40:1
Frame rate mode : Constant
Frame rate : 25.000 fps
Color space : YUV
Chroma subsampling : 4:2:0
Bit depth : 8 bits
Scan type : Progressive
Bits/(Pixel*Frame) : 0.243
Stream size : 2.76 GiB (77%)
Title : Нэнси Дрю / Nancy Drew (2007) WEB-DL 720p
Language : English
Default : Yes
Forced : No
Color primaries : BT.709
Transfer characteristics : BT.709
Matrix coefficients : BT.709
Color range : Limited

Audio #1
ID : 2
Format : AC-3
Format/Info : Audio Coding 3
Mode extension : CM (complete main)
Format settings, Endianness : Big
Codec ID : A_AC3
Duration : 1h 35mn
Bit rate mode : Constant
Bit rate : 384 Kbps
Channel(s) : 6 channels
Channel positions : Front: L C R, Side: L R, LFE
Sampling rate : 48.0 KHz
Bit depth : 16 bits
Compression mode : Lossy
Stream size : 262 MiB (7%)
Title : Многоголосый 5.1 (R5)
Language : Russian
Default : Yes
Forced : No

Audio #2
ID : 3
Format : AC-3
Format/Info : Audio Coding 3
Mode extension : CM (complete main)
Format settings, Endianness : Big
Codec ID : A_AC3
Duration : 1h 35mn
Bit rate mode : Constant
Bit rate : 384 Kbps
Channel(s) : 6 channels
Channel positions : Front: L C R, Side: L R, LFE
Sampling rate : 48.0 KHz
Bit depth : 16 bits
Compression mode : Lossy
Stream size : 262 MiB (7%)
Title : Польский 5.1
Language : Polish
Default : No
Forced : No

Audio #3
ID : 4
Format : AC-3
Format/Info : Audio Coding 3
Mode extension : CM (complete main)
Format settings, Endianness : Big
Codec ID : A_AC3
Duration : 1h 35mn
Bit rate mode : Constant
Bit rate : 384 Kbps
Channel(s) : 6 channels
Channel positions : Front: L C R, Side: L R, LFE
Sampling rate : 48.0 KHz
Bit depth : 16 bits
Compression mode : Lossy
Stream size : 262 MiB (7%)
Title : Английский 5.1 (Оригинал)
Language : English
Default : No
Forced : No

Text #1
ID : 5
Format : VobSub
Muxing mode : zlib
Codec ID : S_VOBSUB
Codec ID/Info : The same subtitle format used on DVDs
Title : Русские (Полные)
Language : Russian
Default : No
Forced : No

Text #2
ID : 6
Format : VobSub
Muxing mode : zlib
Codec ID : S_VOBSUB
Codec ID/Info : The same subtitle format used on DVDs
Title : Польские (Полные)
Language : Polish
Default : No
Forced : No

Text #3
ID : 7
Format : VobSub
Muxing mode : zlib
Codec ID : S_VOBSUB
Codec ID/Info : The same subtitle format used on DVDs
Title : Латышские (Полные)
Language : Latvian
Default : No
Forced : No

Text #4
ID : 8
Format : VobSub
Muxing mode : zlib
Codec ID : S_VOBSUB
Codec ID/Info : The same subtitle format used on DVDs
Title : Литовские (Полные)
Language : Lithuanian
Default : No
Forced : No

Text #5
ID : 9
Format : VobSub
Muxing mode : zlib
Codec ID : S_VOBSUB
Codec ID/Info : The same subtitle format used on DVDs
Title : Эстонские (Полные)
Language : Estonian
Default : No
Forced : No

Text #6
ID : 10
Format : VobSub
Muxing mode : zlib
Codec ID : S_VOBSUB
Codec ID/Info : The same subtitle format used on DVDs
Title : Украинские (Полные)
Language : Ukrainian
Default : No
Forced : No

Text #7
ID : 11
Format : VobSub
Muxing mode : zlib
Codec ID : S_VOBSUB
Codec ID/Info : The same subtitle format used on DVDs
Title : Английские (Полные)
Language : English
Default : No
Forced : No



Скачать Нэнси.Дрю.Nancy.Drew.(Эндрю.Флеминг).[2007.триллер.мелодрама.комедия.криминал.детектив.семейный.WEB-DL].[720p].[MVO]+[Оригинал]+[Sub]x7.torrent без регистрации
Золото ЗОЛОТАЯ РАЗДАЧА! СКАЧАННОЕ НЕ ЗАСЧИТЫВАЕТСЯ! Золото
Дата: Зарегистрирован   [ Тип: внутренний ] Как тут cкачать?
MAGNET ссылка
MAGNET ссылка


Скачать .torrent

19 KB

Статус: проверено DHT
Скачан: торрент - 108 раз, раздача полностью - 8 раз
Размер: 3,6 GB
Оценка:  - (Голосов: 0)
Поблагодарили: 1
Поделиться ссылкой на эту раздачу с друзьями:
В контактеFacebookОдноклассникиTwitterLivejournalМой МирLiveinternet
 

 
Показать сообщения:    


Вы не можете начинать темы
Вы не можете отвечать на сообщения
Вы не можете редактировать свои сообщения
Вы не можете удалять свои сообщения
Вы не можете голосовать в опросах
Вы не можете прикреплять файлы к сообщениям
Вы можете скачивать файлы