Loading...
Error

Скачать Крисалис / Chrysalis (Жюльен Леклерк) [2007, фантастика, триллер, драма, криминал, BDRip] [720p] [MVO]+[Sub]x2 торрент без регистрации

Статистика раздачи
Размер:  5,06 GB   |    Скачан:  55 раз
Сидов:  1  [  0 KB/s  ]  
 
 
 
Автор Сообщение

Marsianka

[] 

Название: Крисалис
Оригинальное название: Chrysalis
Год выпуска: 2007
Жанр: фантастика, триллер, драма, криминал
Выпущено: Франция, Gaumont, TF1 Films Production, Sofica Sogécinéma 2
Режиссер: Жюльен Леклерк
В ролях: Альбер Дюпонтель, Мари Гийяр, Марта Келлер, Мелани Тьерри, Клод Перрон, Ален Фиглаж, Смади Вольфман, Патрик Бошо, Гай Леклюиз, Сирил Лекомте, Франсис Рено, Мэнон Шевалье, Эстель Лефебюр, Энди Кинг, Патрик Хамель, Реми Рубаха, Алекс Вальц, Оливье Вергес, Баптисте Леклерк

О фильме: Париж, 2020 год. Хирург, специализирующийся на новых технологиях и ее дочь попадают в ужасную автомобильную аварию. Врач спасает жизнь дочери, используя свои разработки и воздействуя на ее мечты и воспоминания. В это же время полицейский Хофман в результате бандитской перестрелки, теряет своего напарника и жену. Хофман жаждет отмщения и поэтому, как только получает нового напарника, начинает охоту за преступником, убившем самых дорогих ему людей. Расследование неожиданно приводит Хофмана к хирургу, ее клинике, загадочным разработкам и исследованиям, проводящихся там.



Качество: BDRip 720p
Видео: MPEG-4 AVC, 4700 Кбит/с, 1280x544, 24.000 кадр/с
Аудио: Русский, французский (DTS, 6 ch, 1510 Кбит/с)
Продолжительность: 01:33:52
Перевод: Профессиональный многоголосый
Субтитры: Русские, английские
Общее
Уникальный идентификатор : 209397266125941000475631576540054388994 (0x9D88724E82B93AA3A2C2F20A81F58102)
Полное имя : Chrysalis.2007.720p.Blu-ray.Rus.Fre.HDCLUB.mkv
Формат : Matroska
Версия формата : Version 2
Размер файла : 5,06 Гбайт
Продолжительность : 1 ч. 33 м.
Общий поток : 7716 Кбит/сек
Название фильма : HDCLUB
Дата кодирования : UTC 2013-01-21 18:54:07
Программа кодирования : mkvmerge v5.7.0 ('The Whirlwind') built on Jul 8 2012 20:08:51
Библиотека кодирования : libebml v1.2.3 + libmatroska v1.3.0

Видео
Идентификатор : 1
Формат : AVC
Формат/Информация : Advanced Video Codec
Профиль формата : High@L4.1
Параметр CABAC формата : Да
Параметр ReFrames формата : 12 кадров
Идентификатор кодека : V_MPEG4/ISO/AVC
Продолжительность : 1 ч. 33 м.
Битрейт : 4700 Кбит/сек
Ширина : 1280 пикселей
Высота : 544 пикселя
Соотношение сторон : 2,35:1
Режим частоты кадров : Постоянный
Частота кадров : 24,000 кадра/сек
Цветовое пространство : YUV
Субдискретизация насыщенности : 4:2:0
Битовая глубина : 8 бит
Тип развёртки : Прогрессивная
Бит/(Пиксели*Кадры) : 0.281
Размер потока : 2,98 Гбайт (59%)
Заголовок : HDCLUB
Библиотека кодирования : x264 core 129 r2230 1cffe9f
Настройки программы : cabac=1 / ref=12 / deblock=1:-3:-3 / analyse=0x3:0x113 / me=umh / subme=11 / psy=1 / psy_rd=1.20:0.00 / mixed_ref=1 / me_range=32 / chroma_me=1 / trellis=2 / 8x8dct=1 / cqm=0 / deadzone=21,11 / fast_pskip=0 / chroma_qp_offset=-2 / threads=12 / lookahead_threads=2 / sliced_threads=0 / nr=0 / decimate=1 / interlaced=0 / bluray_compat=0 / constrained_intra=0 / bframes=11 / b_pyramid=2 / b_adapt=2 / b_bias=0 / direct=1 / weightb=1 / open_gop=0 / weightp=2 / keyint=240 / keyint_min=22 / scenecut=40 / intra_refresh=0 / rc_lookahead=40 / rc=2pass / mbtree=0 / bitrate=4700 / ratetol=1.0 / qcomp=0.60 / qpmin=10 / qpmax=69 / qpstep=4 / cplxblur=20.0 / qblur=0.5 / vbv_maxrate=50000 / vbv_bufsize=62500 / nal_hrd=none / ip_ratio=1.40 / pb_ratio=1.30 / aq=1:1.00
Язык : English
Default : Да
Forced : Нет

Аудио #1
Идентификатор : 2
Формат : DTS
Формат/Информация : Digital Theater Systems
Режим : 16
Параметр Endianness формата : Big
Идентификатор кодека : A_DTS
Продолжительность : 1 ч. 33 м.
Вид битрейта : Постоянный
Битрейт : 1509 Кбит/сек
Каналы : 6 каналов
Расположение каналов : Front: L C R, Side: L R, LFE
Частота : 48,0 КГц
Битовая глубина : 24 бит
Метод сжатия : С потерями
Размер потока : 1013 Мбайт (20%)
Заголовок : |Многоголосый закадровый, R5|
Язык : Russian
Default : Да
Forced : Нет

Аудио #2
Идентификатор : 3
Формат : DTS
Формат/Информация : Digital Theater Systems
Режим : 16
Параметр Endianness формата : Big
Идентификатор кодека : A_DTS
Продолжительность : 1 ч. 33 м.
Вид битрейта : Постоянный
Битрейт : 1509 Кбит/сек
Каналы : 6 каналов
Расположение каналов : Front: L C R, Side: L R, LFE
Частота : 48,0 КГц
Битовая глубина : 24 бит
Метод сжатия : С потерями
Размер потока : 1013 Мбайт (20%)
Язык : French
Default : Нет
Forced : Нет

Текст #1
Идентификатор : 4
Формат : UTF-8
Идентификатор кодека : S_TEXT/UTF8
Идентификатор кодека/Информация : UTF-8 Plain Text
Язык : Russian
Default : Нет
Forced : Нет

Текст #2
Идентификатор : 5
Формат : UTF-8
Идентификатор кодека : S_TEXT/UTF8
Идентификатор кодека/Информация : UTF-8 Plain Text
Язык : English
Default : Нет
Forced : Нет

Меню
00:00:00.000 : :00:00:00.000
00:13:13.708 : :00:13:13.708
00:24:54.041 : :00:24:54.041
00:34:09.250 : :00:34:09.250
00:45:13.041 : :00:45:13.041
00:56:00.666 : :00:56:00.666
01:06:53.166 : :01:06:53.166
01:16:25.125 : :01:16:25.125
01:26:40.333 : :01:26:40.333
Релиз от:



Скачать Крисалис.Chrysalis.(Жюльен.Леклерк).[2007.фантастика.триллер.драма.криминал.BDRip].[720p].[MVO]+[Sub]x2.torrent без регистрации
Золото ЗОЛОТАЯ РАЗДАЧА! СКАЧАННОЕ НЕ ЗАСЧИТЫВАЕТСЯ! Золото
Дата: Зарегистрирован   [ Тип: внутренний ] Как тут cкачать?
MAGNET ссылка
MAGNET ссылка


Скачать .torrent

26 KB

Статус: проверено DHT
Скачан: торрент - 55 раз, раздача полностью - 10 раз
Размер: 5,06 GB
Оценка:  - (Голосов: 0)
Поблагодарили: 3
Поделиться ссылкой на эту раздачу с друзьями:
В контактеFacebookОдноклассникиTwitterLivejournalМой МирLiveinternet
 

 
Показать сообщения:    


Вы не можете начинать темы
Вы не можете отвечать на сообщения
Вы не можете редактировать свои сообщения
Вы не можете удалять свои сообщения
Вы не можете голосовать в опросах
Вы не можете прикреплять файлы к сообщениям
Вы можете скачивать файлы