Loading...
Error

Скачать Громила в Египте / Piedone D'Egitto (Стено) [1980, комедия, боевик, BDRip] [1080p] [DVO]+[Sub] торрент без регистрации

Статистика раздачи
Размер:  8,59 GB   |    Скачан:  48 раз

Полного источника не было: 19 минут

 
 
 
Автор Сообщение

Marsianka

[] 

Информация о фильме
Название: Громила в Египте
Оригинальное название: Flatfoot On The Nile / Piedone D'Egitto
Год выпуска: 1980
Страна: Италия
Жанр: комедия, боевик
Продолжительность: 01:48:01
Перевод: Профессиональный (двухголосый закадровый) РЕН-ТВ
Субтитры: Русские (на места без перевода)

Режиссер: Стено

В ролях: Бад Спенсер, Энцо Каннавале, Бальдвин Дакиле, Анджело Инфанти, Венантино Венантини

Описание: 4 фильм - Завершающий рассказ о похождениях комиссара неаполитанской полиции Риццо по прозвищу Громила. Теперь он отправляется в Египет вместе с сержантом Капуто на поиски похищенного профессора Черулло, открывшего в Египте удивительное насекомое, которое якобы водится только неподалеку от залежей нефти. Криминальные круги тоже заинтересованы в открытии профессора. Но было ли оно на самом деле или только в голове профессионального шарлатана от науки?
Полная версия фильма, поэтому на места без перевода добавлены субтитры.



Качество: BDRip 1080p
Формат: MKV
Видео кодек: H264
Аудио кодек: AC3
Видео: MPEG4 Video (H264), 1920x1040, 23.976fps, 11.0 Mbps
Аудио #1: Русский - Dolby AC3, 48000 Hz, 2ch, 192 Kbps - Двухголосый
Аудио #2: Итальянский - Dolby AC3, 48000 Hz, 2ch, 192 Kbps
Сэмпл
General
Unique ID : 249487662342428754529403318488642705142 (0xBBB1937282C1270DABFF4B0C83C956F6)
Complete name : E:Torrent 21980 Громила в Египте.mkv
Format : Matroska
Format version : Version 4 / Version 2
File size : 8.59 GiB
Duration : 1h 48mn
Overall bit rate : 11.4 Mbps
Movie name : 1980 Громила в Египте / renta23
Encoded date : UTC 2016-01-25 10:48:12
Writing application : mkvmerge v8.3.0 ('Over the Horizon') 64bit
Writing library : libebml v1.3.1 + libmatroska v1.4.2

Video
ID : 1
Format : AVC
Format/Info : Advanced Video Codec
Format profile : High@L4.1
Format settings, CABAC : Yes
Format settings, ReFrames : 4 frames
Codec ID : V_MPEG4/ISO/AVC
Duration : 1h 48mn
Bit rate : 11.0 Mbps
Width : 1 920 pixels
Height : 1 040 pixels
Display aspect ratio : 1.85:1
Frame rate mode : Constant
Frame rate : 23.976 (24000/1001) fps
Color space : YUV
Chroma subsampling : 4:2:0
Bit depth : 8 bits
Scan type : Progressive
Bits/(Pixel*Frame) : 0.230
Stream size : 8.30 GiB (97%)
Title : 1980 Громила в Египте
Writing library : x264 core 146 r2538 121396c
Encoding settings : cabac=1 / ref=4 / deblock=1:-1:-1 / analyse=0x3:0x133 / me=umh / subme=11 / psy=1 / psy_rd=1.10:0.20 / mixed_ref=1 / me_range=32 / chroma_me=1 / trellis=2 / 8x8dct=1 / cqm=0 / deadzone=21,11 / fast_pskip=0 / chroma_qp_offset=-3 / threads=12 / lookahead_threads=2 / sliced_threads=0 / nr=0 / decimate=1 / interlaced=0 / bluray_compat=0 / constrained_intra=0 / bframes=9 / b_pyramid=2 / b_adapt=2 / b_bias=0 / direct=3 / weightb=1 / open_gop=0 / weightp=2 / keyint=250 / keyint_min=23 / scenecut=40 / intra_refresh=0 / rc_lookahead=60 / rc=2pass / mbtree=1 / bitrate=11000 / ratetol=1.0 / qcomp=0.60 / qpmin=0 / qpmax=69 / qpstep=4 / cplxblur=20.0 / qblur=0.5 / ip_ratio=1.40 / aq=2:1.00
Language : Italian
Default : Yes
Forced : No

Audio #1
ID : 2
Format : AC-3
Format/Info : Audio Coding 3
Mode extension : CM (complete main)
Format settings, Endianness : Big
Codec ID : A_AC3
Duration : 1h 48mn
Bit rate mode : Constant
Bit rate : 192 Kbps
Channel(s) : 2 channels
Channel positions : Front: L R
Sampling rate : 48.0 KHz
Frame rate : 31.250 fps (1536 spf)
Compression mode : Lossy
Stream size : 148 MiB (2%)
Title : Двухголосый, Ren TV
Language : Russian
Default : Yes
Forced : No

Audio #2
ID : 3
Format : AC-3
Format/Info : Audio Coding 3
Mode extension : CM (complete main)
Format settings, Endianness : Big
Codec ID : A_AC3
Duration : 1h 48mn
Bit rate mode : Constant
Bit rate : 192 Kbps
Channel(s) : 2 channels
Channel positions : Front: L R
Sampling rate : 48.0 KHz
Frame rate : 31.250 fps (1536 spf)
Compression mode : Lossy
Stream size : 148 MiB (2%)
Language : Italian
Default : No
Forced : No

Text
ID : 4
Format : UTF-8
Codec ID : S_TEXT/UTF8
Codec ID/Info : UTF-8 Plain Text
Duration : 6mn 30s
Bit rate : 117 bps
Count of elements : 73
Stream size : 5.58 KiB (0%)
Language : Russian
Default : Yes
Forced : No

Menu
00:00:00.000 : en:Chapter 01
00:12:52.438 : en:Chapter 02
00:22:38.690 : en:Chapter 03
00:35:06.437 : en:Chapter 04
00:44:22.576 : en:Chapter 05
00:57:28.820 : en:Chapter 06
01:13:02.294 : en:Chapter 07
01:29:17.894 : en:Chapter 08



Скачать Громила.в.Египте.Piedone.D'Egitto.(Стено).[1980.комедия.боевик.BDRip].[1080p].[DVO]+[Sub].torrent без регистрации
Золото ЗОЛОТАЯ РАЗДАЧА! СКАЧАННОЕ НЕ ЗАСЧИТЫВАЕТСЯ! Золото
Дата: Зарегистрирован   [ Тип: внутренний ] Как тут cкачать?
MAGNET ссылка
MAGNET ссылка


Скачать .torrent

44 KB

Статус: проверено DHT
Скачан: торрент - 48 раз, раздача полностью - 4 раз
Размер: 8,59 GB
Оценка:  5 (Голосов: 1)
Поблагодарили: 1
Поделиться ссылкой на эту раздачу с друзьями:
В контактеFacebookОдноклассникиTwitterLivejournalМой МирLiveinternet
 

 
Показать сообщения:    


Вы не можете начинать темы
Вы не можете отвечать на сообщения
Вы не можете редактировать свои сообщения
Вы не можете удалять свои сообщения
Вы не можете голосовать в опросах
Вы не можете прикреплять файлы к сообщениям
Вы можете скачивать файлы