Loading...
Error

Скачать Троих нужно убрать / 3 Hommes A Abattre (Жак Дере) [1980, боевик, триллер, BDRip] [1080p] [Dub]+[MVO]x2+[Оригинал]+[Sub]x2 торрент без регистрации

Статистика раздачи
Размер:  11,55 GB   |    Скачан:  57 раз
Сидов:  1  [  0 KB/s  ]  
 
 
 
Автор Сообщение

Marsianka

[] 

Информация о фильме
Название: Троих нужно убрать
Оригинальное название: 3 Hommes A Abattre
Год выпуска: 1980
Страна: Франция, Италия
Жанр: боевик, триллер
Продолжительность: 01:36:52

Режиссер: Жак Дере

В ролях: Ален Делон, Далила Ди Ладзаро, Мишель Оклер, Жан-Пьер Дарра, Паскаль Робер, Андре Фалькон, Франсуа Перро, Питер Бонке, Пьер Дюкс, Лин Шардонне, Бернар Ле Ку, Иван Танги, Даниэль Бретон, Кристиан Барбье, Симона Ренан, Федор Аткин

Описание: Профессиональный картежник Мишель Жерфо, возвращаясь темной ночью домой, замечает раненого человека. Не раздумывая, он отвозит его в больницу, но внезапно понимает, что попал в западню: за ним следят. Мишель выбирает игру ва-банк и решает выяснить, кто же стоит за преступлением, невольным свидетелем которого он стал. Разведав про мафию торговцев оружием, он подставил себя под удар. Теперь Мишелю, несмотря на чудеса изворотливости, «светит» либо сотрудничество с мерзкими типами, либо смерть. И наемный убийца уже «на хвосте».
Фильм шёл в советском прокате, посмотрело 25.2 млн.



Файл
Качество: BDRip 1080p
Формат: MKV
Видео кодек: H264
Аудио кодек: AC3
Видео: MPEG4 Video (H264), 1792x1080, 23.976fps, 15.5 Mbps
Профессиональный (полное дублирование) Советский дубляж
Перевод: Профессиональный (многоголосый закадровый)
Перевод: Профессиональный (многоголосый закадровый), Останкино
Оригинальная аудиодорожка: Французский
Субтитры: Русские, английские
Аудио #1: Русский, Dolby AC3, 48000 Hz, 6ch, 448 kbps - советский дубляж
Аудио #2: Русский, Dolby AC3, 48000 Hz, 6ch, 448 kbps - многоголосый
Аудио #3: Русский, Dolby AC3, 48000 Hz, 2ch, 224 kbps - многоголосый, Останкино
Аудио #4: Французский, Dolby AC3, 48000 Hz, 2ch, 448 kbps
Формат субтитров: Softsub (SRT)
Сэмпл

General
Unique ID : 249378667107341614147090523813778936893 (0xBB9C95913BD469179653E350132DD43D)
Complete name : E:Torrent 21980.3.Hommes.A.Abattre.renta23.mkv
Format : Matroska
Format version : Version 4 / Version 2
File size : 11.6 GiB
Duration : 1h 36mn
Overall bit rate : 17.1 Mbps
Movie name : 1980 Троих нужно убрать / renta23
Encoded date : UTC 2016-01-29 08:11:20
Writing application : mkvmerge v8.3.0 ('Over the Horizon') 64bit
Writing library : libebml v1.3.1 + libmatroska v1.4.2

Video
ID : 1
Format : AVC
Format/Info : Advanced Video Codec
Format profile : High@L4.1
Format settings, CABAC : Yes
Format settings, ReFrames : 4 frames
Codec ID : V_MPEG4/ISO/AVC
Duration : 1h 36mn
Bit rate : 15.5 Mbps
Width : 1 792 pixels
Height : 1 080 pixels
Display aspect ratio : 5:3
Frame rate mode : Constant
Frame rate : 23.976 (24000/1001) fps
Color space : YUV
Chroma subsampling : 4:2:0
Bit depth : 8 bits
Scan type : Progressive
Bits/(Pixel*Frame) : 0.334
Stream size : 10.5 GiB (91%)
Title : 1980 Троих нужно убрать
Writing library : x264 core 146 r2538 121396c
Encoding settings : cabac=1 / ref=4 / deblock=1:-3:-3 / analyse=0x3:0x133 / me=umh / subme=11 / psy=1 / psy_rd=1.10:0.15 / mixed_ref=1 / me_range=24 / chroma_me=1 / trellis=2 / 8x8dct=1 / cqm=0 / deadzone=21,11 / fast_pskip=0 / chroma_qp_offset=-3 / threads=12 / lookahead_threads=3 / sliced_threads=0 / nr=0 / decimate=1 / interlaced=0 / bluray_compat=0 / constrained_intra=0 / bframes=10 / b_pyramid=2 / b_adapt=2 / b_bias=0 / direct=3 / weightb=1 / open_gop=0 / weightp=2 / keyint=250 / keyint_min=23 / scenecut=40 / intra_refresh=0 / rc=2pass / mbtree=0 / bitrate=15500 / ratetol=1.0 / qcomp=0.60 / qpmin=0 / qpmax=69 / qpstep=4 / cplxblur=20.0 / qblur=0.5 / ip_ratio=1.40 / pb_ratio=1.30 / aq=2:1.00
Language : French
Default : Yes
Forced : No

Audio #1
ID : 2
Format : AC-3
Format/Info : Audio Coding 3
Mode extension : CM (complete main)
Format settings, Endianness : Big
Codec ID : A_AC3
Duration : 1h 36mn
Bit rate mode : Constant
Bit rate : 448 Kbps
Channel(s) : 6 channels
Channel positions : Front: L C R, Side: L R, LFE
Sampling rate : 48.0 KHz
Frame rate : 31.250 fps (1536 spf)
Compression mode : Lossy
Stream size : 310 MiB (3%)
Title : Советский дубляж
Language : Russian
Default : Yes
Forced : No

Audio #2
ID : 3
Format : AC-3
Format/Info : Audio Coding 3
Mode extension : CM (complete main)
Format settings, Endianness : Big
Codec ID : A_AC3
Duration : 1h 36mn
Bit rate mode : Constant
Bit rate : 448 Kbps
Channel(s) : 6 channels
Channel positions : Front: L C R, Side: L R, LFE
Sampling rate : 48.0 KHz
Frame rate : 31.250 fps (1536 spf)
Compression mode : Lossy
Stream size : 310 MiB (3%)
Title : Многоголосый закадровый
Language : Russian
Default : No
Forced : No

Audio #3
ID : 4
Format : AC-3
Format/Info : Audio Coding 3
Mode extension : CM (complete main)
Format settings, Endianness : Big
Codec ID : A_AC3
Duration : 1h 36mn
Bit rate mode : Constant
Bit rate : 224 Kbps
Channel(s) : 2 channels
Channel positions : Front: L R
Sampling rate : 48.0 KHz
Frame rate : 31.250 fps (1536 spf)
Compression mode : Lossy
Stream size : 155 MiB (1%)
Title : Многоголосый закадровый, Останкино
Language : Russian
Default : No
Forced : No

Audio #4
ID : 5
Format : AC-3
Format/Info : Audio Coding 3
Mode extension : CM (complete main)
Format settings, Endianness : Big
Codec ID : A_AC3
Duration : 1h 36mn
Bit rate mode : Constant
Bit rate : 448 Kbps
Channel(s) : 2 channels
Channel positions : Front: L R
Sampling rate : 48.0 KHz
Frame rate : 31.250 fps (1536 spf)
Compression mode : Lossy
Stream size : 310 MiB (3%)
Language : French
Default : No
Forced : No

Text #1
ID : 6
Format : UTF-8
Codec ID : S_TEXT/UTF8
Codec ID/Info : UTF-8 Plain Text
Duration : 1h 35mn
Bit rate : 49 bps
Count of elements : 678
Stream size : 34.2 KiB (0%)
Language : Russian
Default : No
Forced : No

Text #2
ID : 7
Format : UTF-8
Codec ID : S_TEXT/UTF8
Codec ID/Info : UTF-8 Plain Text
Duration : 1h 36mn
Bit rate : 28 bps
Count of elements : 783
Stream size : 19.9 KiB (0%)
Language : English
Default : No
Forced : No

Menu
00:00:00.000 : en:Chapter 01
00:06:57.917 : en:Chapter 02
00:15:49.949 : en:Chapter 03
00:26:19.578 : en:Chapter 04
00:33:24.002 : en:Chapter 05
00:41:13.971 : en:Chapter 06
00:50:37.534 : en:Chapter 07
00:58:33.009 : en:Chapter 08
01:10:06.702 : en:Chapter 09
01:17:36.652 : en:Chapter 10
01:23:54.029 : en:Chapter 11
01:35:40.735 : en:Chapter 12



Скачать Троих.нужно.убрать.3.Hommes.A.Abattre.(Жак.Дере).[1980.боевик.триллер.BDRip].[1080p].[Dub]+[MVO]x2+[Оригинал]+[Sub]x2.torrent без регистрации
Золото ЗОЛОТАЯ РАЗДАЧА! СКАЧАННОЕ НЕ ЗАСЧИТЫВАЕТСЯ! Золото
Дата: Зарегистрирован   [ Тип: внутренний ] Как тут cкачать?
MAGNET ссылка
MAGNET ссылка


Скачать .torrent

58 KB

Статус: проверено DHT
Скачан: торрент - 57 раз, раздача полностью - 5 раз
Размер: 11,55 GB
Оценка:  - (Голосов: 0)
Поблагодарили: 2
Поделиться ссылкой на эту раздачу с друзьями:
В контактеFacebookОдноклассникиTwitterLivejournalМой МирLiveinternet
 

 
Показать сообщения:    


Вы не можете начинать темы
Вы не можете отвечать на сообщения
Вы не можете редактировать свои сообщения
Вы не можете удалять свои сообщения
Вы не можете голосовать в опросах
Вы не можете прикреплять файлы к сообщениям
Вы можете скачивать файлы