Loading...
Error

Скачать Секс, ложь, безумие / Dream Lover (Николас Казан) [1993, драма, мистика, триллер, HDTVRip] [720p] [DVO] торрент без регистрации

Статистика раздачи
Размер:  2,14 GB   |    Скачан:  53 раза
Сидов:  1  [  0 KB/s  ]  
 
 
 
Автор Сообщение

Marsianka

[] 

Информация о фильме
Название: Секс, ложь, безумие
Оригинальное название: Dream Lover
Год выхода: 1993
Жанр: драма, мистика, триллер
Режиссер: Николас Казан / Nicholas Kazan
В ролях: Джеймс Спэйдер, Медхен Эмик, Фредрик Лене, Бесс Армстронг, Ларри Миллер, Кэтлин Йорк, Кейт Уильямсон, Том Лиллард, Уильям Шокли, Карл Сандстром

О фильме:
В жизни преуспевающего бизнесмена Рэя настают тяжелые времена. Развод с женой, проблемы в бизнесе, депрессия. В это время судьба сводит его с очаровательной Леной. Она помогает ему забыть о прошлых неудачах. Жизнь вновь кажется безоблачной и счастливой, но именно в этот момент начинают происходить таинственные проишествия, которые проливают свет на темное прошлое Лены. Ни о чем не подозревающий Рэй оказывается в смертельной опасности, которая исходит от его идеальной любовницы…


Страна: США
Студия: PolyGram Filmed Entertainment, Propaganda Films, Nicita/Lloyd Productions
Продолжительность: 01:39:17.824
Перевод: Профессиональный (двухголосый закадровый)

Файл
Кодек: h.264
Качество: HDTVRip 720p Источник собственная запись HDTV 1080i MGM HD
Видео: 1280x696 (1.85:1), 25.000 fps, AVC, ~2736 Kbps, 0.123 bits/pixel

Русский, 48.0 KHz, AC3, 2 ch, 160 Kbps
Английский, 48.0 KHz, AC3, 2 ch, 192 Kbps (синхр. с DVD)
Субтитры: нет
Общее
Уникальный идентификатор : 208955151130679437996365827592990333869 (0x9D334C5ABEA1E410B3BAFDABD0699BAD)
Полное имя : I:FilmsSeks_lozh_bezumiye.1993.HDTVRip720p.mkv
Формат : Matroska
Версия формата : Version 4 / Version 2
Размер файла : 2,14 Гбайт
Продолжительность : 1 ч. 39 м.
Общий поток : 3089 Кбит/сек
Дата кодирования : UTC 2016-01-28 20:50:25
Программа кодирования : mkvmerge v8.8.0 ('Wind at my back') 64bit
Библиотека кодирования : libebml v1.3.3 + libmatroska v1.4.4

Видео
Идентификатор : 1
Формат : AVC
Формат/Информация : Advanced Video Codec
Профиль формата : High@L4.1
Параметр CABAC формата : Да
Параметр ReFrames формата : 9 кадров
Идентификатор кодека : V_MPEG4/ISO/AVC
Продолжительность : 1 ч. 39 м.
Битрейт : 2736 Кбит/сек
Ширина : 1280 пикселей
Высота : 696 пикселей
Соотношение сторон : 1,85:1
Режим частоты кадров : Постоянный
Частота кадров : 25,000 кадров/сек
Цветовое пространство : YUV
Субдискретизация насыщенности : 4:2:0
Битовая глубина : 8 бит
Тип развёртки : Прогрессивная
Бит/(Пиксели*Кадры) : 0.123
Размер потока : 1,90 Гбайт (89%)
Библиотека кодирования : x264 core 148 r2638 7599210
Настройки программы : cabac=1 / ref=9 / deblock=1:-3:-3 / analyse=0x3:0x133 / me=umh / subme=11 / psy=1 / psy_rd=1.10:0.15 / mixed_ref=1 / me_range=48 / chroma_me=1 / trellis=2 / 8x8dct=1 / cqm=0 / deadzone=21,11 / fast_pskip=0 / chroma_qp_offset=-3 / threads=8 / lookahead_threads=1 / sliced_threads=0 / nr=0 / decimate=0 / interlaced=0 / bluray_compat=0 / constrained_intra=0 / bframes=8 / b_pyramid=2 / b_adapt=2 / b_bias=0 / direct=3 / weightb=1 / open_gop=0 / weightp=2 / keyint=250 / keyint_min=25 / scenecut=40 / intra_refresh=0 / rc_lookahead=60 / rc=2pass / mbtree=0 / bitrate=2736 / ratetol=1.0 / qcomp=0.60 / qpmin=0 / qpmax=69 / qpstep=4 / cplxblur=20.0 / qblur=0.5 / vbv_maxrate=40000 / vbv_bufsize=50000 / nal_hrd=none / filler=0 / ip_ratio=1.40 / pb_ratio=1.30 / aq=1:1.00
Default : Нет
Forced : Нет
Цветовой диапазон : Limited
Основные цвета : BT.709
Характеристики трансфера : BT.709
Коэффициенты матрицы : BT.709

Аудио #1
Идентификатор : 2
Формат : AC-3
Формат/Информация : Audio Coding 3
Расширение режима : CM (complete main)
Параметр Endianness формата : Big
Идентификатор кодека : A_AC3
Продолжительность : 1 ч. 39 м.
Вид битрейта : Постоянный
Битрейт : 160 Кбит/сек
Каналы : 2 канала
Расположение каналов : Front: L R
Частота : 48,0 КГц
Частота кадров : 31,250 кадров/сек (1536 spf)
Метод сжатия : С потерями
Размер потока : 114 Мбайт (5%)
Язык : Russian
Default : Да
Forced : Нет

Аудио #2
Идентификатор : 3
Формат : AC-3
Формат/Информация : Audio Coding 3
Расширение режима : CM (complete main)
Параметр Endianness формата : Big
Идентификатор кодека : A_AC3
Продолжительность : 1 ч. 39 м.
Вид битрейта : Постоянный
Битрейт : 192 Кбит/сек
Каналы : 2 канала
Расположение каналов : Front: L R
Частота : 48,0 КГц
Частота кадров : 31,250 кадров/сек (1536 spf)
Метод сжатия : С потерями
Размер потока : 136 Мбайт (6%)
Язык : English
Default : Нет
Forced : Нет
frame I:907 Avg QP:15.38 size: 92766
frame P:37516 Avg QP:18.21 size: 30646
frame B:110522 Avg QP:20.65 size: 7266
Релиз от: Temperest



Скачать Секс.ложь.безумие.Dream.Lover.(Николас.Казан).[1993.драма.мистика.триллер.HDTVRip].[720p].[DVO].torrent без регистрации
Золото ЗОЛОТАЯ РАЗДАЧА! СКАЧАННОЕ НЕ ЗАСЧИТЫВАЕТСЯ! Золото
Дата: Зарегистрирован   [ Тип: внутренний ] Как тут cкачать?
MAGNET ссылка
MAGNET ссылка


Скачать .torrent

11 KB

Статус: проверено DHT
Скачан: торрент - 53 раз, раздача полностью - 5 раз
Размер: 2,14 GB
Оценка:  - (Голосов: 0)
Поблагодарили: 1
Поделиться ссылкой на эту раздачу с друзьями:
В контактеFacebookОдноклассникиTwitterLivejournalМой МирLiveinternet
 

 
Показать сообщения:    


Вы не можете начинать темы
Вы не можете отвечать на сообщения
Вы не можете редактировать свои сообщения
Вы не можете удалять свои сообщения
Вы не можете голосовать в опросах
Вы не можете прикреплять файлы к сообщениям
Вы можете скачивать файлы