Loading...
Error

Скачать Гангстеры / Mobsters (Майкл Карбельникофф) [1991, драма, криминал, BDRip] [1080p] [DVO]+[MVO]+[AVO]+[Оригинал] торрент без регистрации

Статистика раздачи
Размер:  7,75 GB   |    Скачан:  59 раз
Сидов:  1  [  0 KB/s  ]  
 
 
 
Автор Сообщение

Marsianka

[] 


Информация о фильме
Русское название: Гангстеры / Мафиозо / Преступный синдикат
Оригинальное название: Mobsters
Год выхода: 1991
Жанр: драма, криминал
Режиссер: Майкл Карбельникофф
Выпущено: США
Продолжительность: 02:00:35
Перевод: Профессиональный (двухголосый закадровый), Профессиональный (многоголосый закадровый), Авторский (одноголосый закадровый)
В ролях: Кристиан Слейтер, Патрик Демпси, Костас Мэндилор, Ричард Грико, Ф. Мюррей Абрахам, Майкл Гэмбон, Лара Флинн Бойл, Энтони Куинн, Кристофер Пенн, Николас Сэдлер и др.
Сюжет фильма
Их было четверо. Они были особенными и знали это. Они не побоялись тех, кто был сильнее их и не стали ни под кого «прогибаться».
Они заставили считаться с собой целый континент, при помощи силы, ума и автомата Томми — насадили свои законы. Они стали легендой криминальной истории Америки!
Файл
Качество: BDRip 1080p (исходник Blu-ray Disc Remux)
Контейнер: MKV (расширение файла)
Видео: 1920x1038, 8182 Кбит/сек, 23,976 кадр/сек, AVC, x264, High@L4.1, 1.85:1, 0.171 Бит/[Пиксели*Кадры]
Аудио 1: AC-3, 192 Кбит/сек, 2 канала(ов), 48,0 КГц - Двухголосый закадровый, DVD R5 / Русский
Аудио 2: AC-3, 192 Кбит/сек, 2 канала(ов), 48,0 КГц - Многоголосый закадровый, СТС / Русский
Аудио 3: AC-3, 192 Кбит/сек, 2 канала(ов), 48,0 КГц - Одноголосый закадровый, Е.Гаевский / Русский
Аудио 4: AC-3, 448 Кбит/сек, 2 канала(ов), 48,0 КГц - Оригинал / Английский
Субтитры: Нет
Форсированные субтитры: Нет
Чаптеры (Главы): Есть



Автор Рипа: Сообщество: мы в VK

Format : Matroska
Format version : Version 2
File size : 7.75 GiB
Duration : 2h 0mn
Overall bit rate : 9 203 Kbps
Movie name : Гангстеры.(1991).BDRip.1080p.Uncut.Version.[envy]
Encoded date : UTC 2016-02-14 13:44:15
Writing application : mkvmerge v5.8.0 ('No Sleep / Pillow') built on Sep 2 2012 15:37:04
Writing library : libebml v1.2.3 + libmatroska v1.3.0

Video
ID : 1
Format : AVC
Format/Info : Advanced Video Codec
Format profile : High@L4.1
Format settings, CABAC : Yes
Format settings, ReFrames : 4 frames
Codec ID : V_MPEG4/ISO/AVC
Duration : 2h 0mn
Bit rate : 8 182 Kbps
Width : 1 920 pixels
Height : 1 038 pixels
Display aspect ratio : 1.85:1
Frame rate mode : Constant
Frame rate : 23.976 fps
Color space : YUV
Chroma subsampling : 4:2:0
Bit depth : 8 bits
Scan type : Progressive
Bits/(Pixel*Frame) : 0.171
Stream size : 6.74 GiB (87%)
Title : Гангстеры.(1991).BDRip.1080p.Uncut.Version.[envy]
Writing library : x264 core 148 r2665 a01e339
Encoding settings : cabac=1 / ref=4 / deblock=1:-3:-2 / analyse=0x3:0x133 / me=umh / subme=11 / psy=1 / psy_rd=1.00:0.00 / mixed_ref=1 / me_range=32 / chroma_me=1 / trellis=2 / 8x8dct=1 / cqm=0 / deadzone=21,11 / fast_pskip=0 / chroma_qp_offset=-2 / threads=12 / lookahead_threads=1 / sliced_threads=0 / nr=0 / decimate=1 / interlaced=0 / bluray_compat=0 / constrained_intra=0 / bframes=5 / b_pyramid=2 / b_adapt=2 / b_bias=0 / direct=3 / weightb=1 / open_gop=0 / weightp=2 / keyint=240 / keyint_min=23 / scenecut=40 / intra_refresh=0 / rc=2pass / mbtree=0 / bitrate=8182 / ratetol=2.0 / qcomp=0.60 / qpmin=0 / qpmax=69 / qpstep=4 / cplxblur=20.0 / qblur=0.5 / ip_ratio=1.40 / pb_ratio=1.30 / aq=2:0.70
Language : English
Default : Yes
Forced : No

Audio #1
ID : 2
Format : AC-3
Format/Info : Audio Coding 3
Mode extension : CM (complete main)
Format settings, Endianness : Big
Codec ID : A_AC3
Duration : 2h 0mn
Bit rate mode : Constant
Bit rate : 192 Kbps
Channel(s) : 2 channels
Channel positions : Front: L R
Sampling rate : 48.0 KHz
Compression mode : Lossy
Stream size : 166 MiB (2%)
Title : DVO R5
Language : Russian
Default : Yes
Forced : No

Audio #2
ID : 3
Format : AC-3
Format/Info : Audio Coding 3
Mode extension : CM (complete main)
Format settings, Endianness : Big
Codec ID : A_AC3
Duration : 2h 0mn
Bit rate mode : Constant
Bit rate : 192 Kbps
Channel(s) : 2 channels
Channel positions : Front: L R
Sampling rate : 48.0 KHz
Compression mode : Lossy
Stream size : 166 MiB (2%)
Title : MVO CTC
Language : Russian
Default : No
Forced : No

Audio #3
ID : 4
Format : AC-3
Format/Info : Audio Coding 3
Mode extension : CM (complete main)
Format settings, Endianness : Big
Codec ID : A_AC3
Duration : 2h 0mn
Bit rate mode : Constant
Bit rate : 192 Kbps
Channel(s) : 2 channels
Channel positions : Front: L R
Sampling rate : 48.0 KHz
Compression mode : Lossy
Stream size : 166 MiB (2%)
Title : AVO Gaevskij
Language : Russian
Default : No
Forced : No

Audio #4
ID : 5
Format : AC-3
Format/Info : Audio Coding 3
Mode extension : CM (complete main)
Format settings, Endianness : Big
Codec ID : A_AC3
Duration : 2h 0mn
Bit rate mode : Constant
Bit rate : 448 Kbps
Channel(s) : 2 channels
Channel positions : Front: L R
Sampling rate : 48.0 KHz
Compression mode : Lossy
Stream size : 386 MiB (5%)
Title : Eng
Language : English
Default : No
Forced : No

Menu
00:00:00.000 : en:
00:04:44.493 : en:
00:12:18.446 : en:
00:23:15.060 : en:
00:35:08.648 : en:
00:43:50.628 : en:
00:57:17.643 : en:
01:10:54.459 : en:
01:23:44.353 : en:
01:34:26.870 : en:
01:48:08.357 : en:




Скачать Гангстеры.Mobsters.(Майкл.Карбельникофф).[1991.драма.криминал.BDRip].[1080p].[DVO]+[MVO]+[AVO]+[Оригинал].torrent без регистрации
Золото ЗОЛОТАЯ РАЗДАЧА! СКАЧАННОЕ НЕ ЗАСЧИТЫВАЕТСЯ! Золото
Дата: Зарегистрирован   [ Тип: внутренний ] Как тут cкачать?
MAGNET ссылка
MAGNET ссылка


Скачать .torrent

40 KB

Статус: проверено DHT
Скачан: торрент - 59 раз, раздача полностью - 11 раз
Размер: 7,75 GB
Оценка:  - (Голосов: 0)
Поблагодарили: 1
Поделиться ссылкой на эту раздачу с друзьями:
В контактеFacebookОдноклассникиTwitterLivejournalМой МирLiveinternet
 

 
Показать сообщения:    


Вы не можете начинать темы
Вы не можете отвечать на сообщения
Вы не можете редактировать свои сообщения
Вы не можете удалять свои сообщения
Вы не можете голосовать в опросах
Вы не можете прикреплять файлы к сообщениям
Вы можете скачивать файлы