Loading...
Error

Скачать Байки из склепа: Кровавый бордель / Bordello of Blood (Гилберт Адлер) [1996, ужасы, фэнтези, комедия, ..., BDRip] [1080p] [MVO]+[DVO]+[AVO]+[Sub] торрент без регистрации

Статистика раздачи
Размер:  10,47 GB   |    Скачан:  61 раз

Полного источника не было: 20 минут

 
 
 
Автор Сообщение

Marsianka

[] 

Название: Байки из склепа: Кровавый бордель
Оригинальное название: Bordello of Blood
Год выхода: 1996
Страна: США
Студия: Universal City Studios, Tales From The Crypt Holdings
Продолжительность: 01:26:33
Жанр: ужасы, фэнтези, комедия, ...

Режиссер: Гилберт Адлер
В ролях: Джон Кассир, Дэннис Миллер, Эрика Элениак, Энджи Эверхарт, Крис Сарандон, Кори Фельдман, Обри Моррис, Фил Фондакаро, Уильям Сэдлер, Киара Хантер, Вупи Голдберг, ...

О фильме: Мадам Лилит и ее сексапильные помощницы содержат очень необычный бордель на окраине города. Они берут за услуги не только деньги, но и высасывают из клиентов кровь до последней капли.
Хитроватый пройдоха Рэйф Гэттмен тоже попадает в эту переделку и оказывается один на один с дюжиной кровавых вампиров и, мало того, с его Преподобием Джимми Кэррентом, проходимцем, обладающим всемогущим талисманом…



Кодек: x264
Качество: BDRip 1080p
Видео: 1916x1040 , 15000 kbps, 23,976 fps

Профессиональный (многоголосый, закадровый) Премьер Видео Фильм (СТС)
Профессиональный (двухголосый, закадровый)
Авторский (одноголосый, закадровый) Живов Юрий Викторович
Аудио #1: AC-3, 2 ch, 192 kbps (Rus) - MVO Премьер Видео Фильм (СТС)
Аудио #2: AC-3, 2 ch, 192 kbps (Rus) - DVO
Аудио #3: AC-3, 6 ch, 448 kbps (Rus) - AVO Живов Юрий Викторович
Аудио #4: DTS, 6 ch, 1509 kbps (Eng)
Субтитры: Английские

x264 [info]: frame I:640 Avg QP:19.44 size:192357
x264 [info]: frame P:22277 Avg QP:21.10 size:113780
x264 [info]: frame B:101571 Avg QP:23.39 size: 69575
x264 [info]: consecutive B-frames: 1.1% 1.6% 2.8% 17.3% 16.4% 21.6% 10.2% 5.6% 6.8% 5.7% 4.7% 5.1% 1.2%

Общее
Уникальный идентификатор : 252102899878403692459629694641481876547 (0xBDA9409CE924928CBB8D313E7A4A8443)
Полное имя : Байки из склепа Кровавый бордель (Bordello of Blood) 1996 BDRip 1080p.mkv
Формат : Matroska
Версия формата : Version 2
Размер файла : 10,5 Гбайт
Продолжительность : 1 ч. 26 м.
Общий поток : 17,3 Мбит/сек
Дата кодирования : UTC 2016-02-20 05:11:05
Программа кодирования : mkvmerge v4.0.0 ('The Stars were mine') сборка от Jun 6 2010 16:18:42
Библиотека кодирования : libebml v1.0.0 + libmatroska v1.0.0

Видео
Идентификатор : 1
Формат : AVC
Формат/Информация : Advanced Video Codec
Профиль формата : High@L4.1
Параметр CABAC формата : Да
Параметр ReFrames формата : 4 кадра
Идентификатор кодека : V_MPEG4/ISO/AVC
Продолжительность : 1 ч. 26 м.
Битрейт : 15,0 Мбит/сек
Ширина : 1916 пикселей
Высота : 1040 пикселей
Соотношение сторон : 1,85:1
Режим частоты кадров : Постоянный
Частота кадров : 23,976 кадра/сек
Цветовое пространство : YUV
Субдискретизация насыщенности : 4:2:0
Битовая глубина : 8 бит
Тип развёртки : Прогрессивная
Бит/(Пиксели*Кадры) : 0.314
Размер потока : 8,85 Гбайт (84%)
Библиотека кодирования : x264 core 146 r2538 121396c
Настройки программы : cabac=1 / ref=4 / deblock=1:-3:-3 / analyse=0x3:0x133 / me=umh / subme=11 / psy=1 / psy_rd=1.08:0.12 / mixed_ref=1 / me_range=32 / chroma_me=1 / trellis=2 / 8x8dct=1 / cqm=0 / deadzone=21,11 / fast_pskip=0 / chroma_qp_offset=-3 / threads=12 / lookahead_threads=2 / sliced_threads=0 / nr=0 / decimate=0 / interlaced=0 / bluray_compat=0 / constrained_intra=0 / bframes=12 / b_pyramid=2 / b_adapt=2 / b_bias=0 / direct=3 / weightb=1 / open_gop=0 / weightp=2 / keyint=240 / keyint_min=23 / scenecut=40 / intra_refresh=0 / rc_lookahead=60 / rc=2pass / mbtree=0 / bitrate=15000 / ratetol=1.0 / qcomp=0.60 / qpmin=0 / qpmax=69 / qpstep=4 / cplxblur=20.0 / qblur=0.5 / vbv_maxrate=50000 / vbv_bufsize=62500 / nal_hrd=none / filler=0 / ip_ratio=1.40 / pb_ratio=1.30 / aq=1:0.90
Язык : English
Default : Нет
Forced : Нет

Аудио #1
Идентификатор : 2
Формат : AC-3
Формат/Информация : Audio Coding 3
Расширение режима : CM (complete main)
Параметр Endianness формата : Big
Идентификатор кодека : A_AC3
Продолжительность : 1 ч. 26 м.
Вид битрейта : Постоянный
Битрейт : 192 Кбит/сек
Каналы : 2 канала
Расположение каналов : Front: L R
Частота : 48,0 КГц
Метод сжатия : С потерями
Размер потока : 119 Мбайт (1%)
Заголовок : MVO Премьер Видео Фильм (СТС)
Язык : Russian
Default : Нет
Forced : Нет

Аудио #2
Идентификатор : 3
Формат : AC-3
Формат/Информация : Audio Coding 3
Расширение режима : CM (complete main)
Параметр Endianness формата : Big
Идентификатор кодека : A_AC3
Продолжительность : 1 ч. 26 м.
Вид битрейта : Постоянный
Битрейт : 192 Кбит/сек
Каналы : 2 канала
Расположение каналов : Front: L R
Частота : 48,0 КГц
Метод сжатия : С потерями
Размер потока : 119 Мбайт (1%)
Заголовок : DVO
Язык : Russian
Default : Нет
Forced : Нет

Аудио #3
Идентификатор : 4
Формат : AC-3
Формат/Информация : Audio Coding 3
Расширение режима : CM (complete main)
Параметр Endianness формата : Big
Идентификатор кодека : A_AC3
Продолжительность : 1 ч. 26 м.
Вид битрейта : Постоянный
Битрейт : 448 Кбит/сек
Каналы : 6 каналов
Расположение каналов : Front: L C R, Side: L R, LFE
Частота : 48,0 КГц
Метод сжатия : С потерями
Размер потока : 277 Мбайт (3%)
Заголовок : AVO Живов Юрий Викторович
Язык : Russian
Default : Нет
Forced : Нет

Аудио #4
Идентификатор : 5
Формат : DTS
Формат/Информация : Digital Theater Systems
Режим : 16
Параметр Endianness формата : Big
Идентификатор кодека : A_DTS
Продолжительность : 1 ч. 26 м.
Вид битрейта : Постоянный
Битрейт : 1509 Кбит/сек
Каналы : 6 каналов
Расположение каналов : Front: L C R, Side: L R, LFE
Частота : 48,0 КГц
Битовая глубина : 16 бит
Метод сжатия : С потерями
Размер потока : 934 Мбайт (9%)
Язык : English
Default : Нет
Forced : Нет

Текст
Идентификатор : 6
Формат : UTF-8
Идентификатор кодека : S_TEXT/UTF8
Идентификатор кодека/Информация : UTF-8 Plain Text
Язык : English
Default : Нет
Forced : Нет



Скачать Байки.из.склепа.Кровавый.бордель.Bordello.of.Blood.(Гилберт.Адлер).[1996.ужасы.фэнтези.комедия.BDRip].[1080p].[MVO]+[DVO]+[AVO]+[Sub].torrent без регистрации
Золото ЗОЛОТАЯ РАЗДАЧА! СКАЧАННОЕ НЕ ЗАСЧИТЫВАЕТСЯ! Золото
Дата: Зарегистрирован   [ Тип: внутренний ] Как тут cкачать?
MAGNET ссылка
MAGNET ссылка


Скачать .torrent

53 KB

Статус: проверено DHT
Скачан: торрент - 61 раз, раздача полностью - 13 раз
Размер: 10,47 GB
Оценка:  - (Голосов: 0)
Поблагодарили: 0
Поделиться ссылкой на эту раздачу с друзьями:
В контактеFacebookОдноклассникиTwitterLivejournalМой МирLiveinternet
 

 
Показать сообщения:    


Вы не можете начинать темы
Вы не можете отвечать на сообщения
Вы не можете редактировать свои сообщения
Вы не можете удалять свои сообщения
Вы не можете голосовать в опросах
Вы не можете прикреплять файлы к сообщениям
Вы можете скачивать файлы