Loading...
Error

Скачать Батальонъ (расширенная,телевизионная версия) (01-04 из 04) (Дмитрий Месхиев, Игорь Угольников) [2014, военный фильм, драма, исторический фильм, SATRip-AVC] торрент без регистрации

Статистика раздачи
Размер:  2,43 GB   |    Скачан:  145 раз

Полного источника не было: 9 месяцев

 
 
 
Автор Сообщение

сашок33

[] 

Батальонъ


«Первый. Женский. Бессмертный»




Год выпуска: 2014
Производство: Россия,«Корнер Ворк» совместно с «Арт Пикчерс Студия»
Жанр: военный фильм, драма, исторический фильм
Продолжительность: 00:51:00
Субтитры: нет




Режиссёр: Дмитрий Месхиев, Игорь Угольников (телевизионной версии)



В ролях: Мария Аронова, Мария Кожевникова, Валерия Шкирандо, Мария Антонова, Янина Малинчик, Мила Макарова, Ирина Рахманова, Алёна Кучкова, Полина Дудкина, Анна Кузнецова, Марат Башаров, Евгений Дятлов, Николай Аузин, Виталий Коваленко, Дмитрий Шевченко, Михаил Касапов, Леся Андреева, Максим Митяшин, Маргарита Бычкова, Константин Воробьёв, Кирилл Полухин, Алексей Ведерников (II), Хельга Филиппова, Сергей Бызгу, Артур Ваха, Владимир Зайцев, Матс Райнхардт, Валерий Дегтярь, Алексей Дмитриев, Яков Шамшин, Алексей Севастьянов (II), Юрий Ицков, Кирилл Кобзарев, Георгий Корольчук, Андрей Лёвин, Евгения Натанова, Сергей Тэсслер, Вера Савельева, Варвара Светлова, Павел Бадыров, Сергей Уманов, Юрий Агейкин, Евгений Карпов, Владимир Чернышов.



Описание: Весна 1917-го года. Февральская революция изменила жизнь России и ход Великой войны. Государь уже отрёкся от престола. В окопах, где противостояние с немцами длится уже не один год, вовсю ведут свою пропаганду большевики. Они призывают к миру с неприятелем. Российское офицерство фактически ничего не может решить без одобрения так называемых солдатских комитетов. Армия находится на пороге окончательного разложения.По приказу Временного правительства для поднятия боевого духа создаётся женский «Батальон смерти» под командованием георгиевского кавалера Марии Бочкарёвой. Своей службой «Батальон смерти» подаёт пример храбрости, мужества и спокойствия, поднимает дух солдат и доказывает, что каждая из этих женщин-героев достойна звания воина русской армии.








Качество: SATRip-AVC
Формат: MKV
Видео кодек: H.264
Аудио кодек: AC3
Видео: MPEG-4 AVC, 720х400,25fps,~1694 Кбит/сек,Bits/Pixel 0.208
Аудио: AC3, 48 kHz, ~192 Kbps, 2 канала




Общее
Уникальный идентификатор : 212312113225280248754956828161359191125 (0x9FB9D35D40A31598A8D6563D9C6F9C55)
Полное имя : G:\Батальонъ\Батальонъ_01 серия rip by_Aleksan55.mkv
Формат : Matroska
Версия формата : Version 2
Размер файла : 628 Мбайт
Продолжительность : 51 м.
Общий поток : 1694 Кбит/сек
Дата кодирования : UTC 2016-03-10 03:58:01
Программа кодирования : mkvmerge v7.8.0 ('River Man') 32bit built on Apr 3 2015 12:11:22
Библиотека кодирования : libebml v1.3.1 + libmatroska v1.4.2

Видео
Идентификатор : 1
Формат : AVC
Формат/Информация : Advanced Video Codec
Профиль формата : High@L4.1
Параметр CABAC формата : Да
Параметр ReFrames формата : 13 кадров
Идентификатор кодека : V_MPEG4/ISO/AVC
Продолжительность : 51 м.
Битрейт : 1500 Кбит/сек
Ширина : 720 пикселей
Высота : 400 пикселей
Соотношение сторон : 1,85:1
Режим частоты кадров : Постоянный
Частота кадров : 25,000 кадров/сек
Цветовое пространство : YUV
Субдискретизация насыщенности : 4:2:0
Битовая глубина : 8 бит
Тип развёртки : Прогрессивная
Бит/(Пиксели*Кадры) : 0.208
Размер потока : 544 Мбайт (87%)
Библиотека кодирования : x264 core 146 r2538 121396c
Настройки программы : cabac=1 / ref=13 / deblock=1:-3:-3 / analyse=0x3:0x113 / me=umh / subme=9 / psy=1 / psy_rd=1.00:0.25 / mixed_ref=0 / me_range=32 / chroma_me=1 / trellis=2 / 8x8dct=1 / cqm=0 / deadzone=6,6 / fast_pskip=1 / chroma_qp_offset=-4 / threads=2 / lookahead_threads=4 / sliced_threads=0 / nr=0 / decimate=0 / interlaced=0 / bluray_compat=0 / constrained_intra=0 / bframes=12 / b_pyramid=2 / b_adapt=1 / b_bias=0 / direct=3 / weightb=1 / open_gop=0 / weightp=2 / keyint=250 / keyint_min=25 / scenecut=40 / intra_refresh=0 / rc_lookahead=40 / rc=2pass / mbtree=1 / bitrate=1500 / ratetol=1.0 / qcomp=0.80 / qpmin=0 / qpmax=69 / qpstep=4 / cplxblur=20.0 / qblur=0.5 / ip_ratio=1.10 / aq=1:0.50
Default : Да
Forced : Нет
Цветовой диапазон : Limited
Основные цвета : BT.601 PAL
Характеристики трансфера : BT.470 System B, BT.470 System G
Коэффициенты матрицы : BT.601

Аудио
Идентификатор : 2
Формат : AC-3
Формат/Информация : Audio Coding 3
Расширение режима : CM (complete main)
Параметр Endianness формата : Big
Идентификатор кодека : A_AC3
Продолжительность : 51 м.
Вид битрейта : Постоянный
Битрейт : 192 Кбит/сек
Каналы : 2 канала
Расположение каналов : Front: L R
Частота : 48,0 КГц
Метод сжатия : С потерями
Размер потока : 71,2 Мбайт (11%)
Default : Да
Forced : Нет
Внимание! Раздача ведётся путём добавления новых серий; при каждом добавлении создаётся новый торрент.
Чтобы начать докачку новой серии, пользователям необходимо сделать следующее:
1. Остановить скачивание;
2. Удалить старый торрент у себя из клиента (старые серии удалять не надо);
3. Скачать новый торрент и запустить его у себя в клиенте вместо старого, при этом указать клиенту путь в старую папку куда и должно происходить скачивание новых серий. Ваш клиент при этом должен произвести хеширование (проверку) старой папки и будет докачивать только те серии, которых у вас ещё нет. Старые серии при этом не удаляются, а продолжают раздаваться! Eсли вы уже удалили старые серии, то предотвратить повторную закачку старых серий можно, отжав галочку в соответствующих местах при запуске нового торрента.



Рекламы нет.


Добавлены 3-4 серия.



Скачать Батальонъ.(расширенная.телевизионная.версия).(01-04.из.04).(Дмитрий.Месхиев.Игорь.Угольников).[2014.военный.фильм.драма.исторический.фильм.SATRip-AVC].torrent без регистрации
Золото ЗОЛОТАЯ РАЗДАЧА! СКАЧАННОЕ НЕ ЗАСЧИТЫВАЕТСЯ! Золото
Дата: Зарегистрирован   [ Тип: внутренний ] Как тут cкачать?
MAGNET ссылка
MAGNET ссылка


Скачать .torrent

13 KB

Статус: * не проверено
Скачан: торрент - 145 раз, раздача полностью - 86 раз
Размер: 2,43 GB
Оценка:  5 (Голосов: 1)
Поблагодарили: 3
Поделиться ссылкой на эту раздачу с друзьями:
В контактеFacebookОдноклассникиTwitterLivejournalМой МирLiveinternet
 

 
Показать сообщения:    


Вы не можете начинать темы
Вы не можете отвечать на сообщения
Вы не можете редактировать свои сообщения
Вы не можете удалять свои сообщения
Вы не можете голосовать в опросах
Вы не можете прикреплять файлы к сообщениям
Вы можете скачивать файлы