Loading...
Error

Скачать И грянул шторм / The Finest Hours (Крэйг Гиллеспи) [2016, боевик, триллер, драма, история, BDRip] [720p] [Dub (Лицензия)]+[Ukr]+[Eng]+[Sub Rus, Ukr, Eng] торрент без регистрации

Статистика раздачи
Размер:  7,72 GB   |    Скачан:  1124 раза
Сидов:  1  [  0 KB/s  ]  
 
 
 
Автор Сообщение

МихаНЕзатор

[] 

Информация о фильме
Название: И грянул шторм
Оригинальное название: The Finest Hours
Год выхода: 2016
Жанр: Боевик, триллер, драма, история
Режиссер: Крэйг Гиллеспи

В ролях: Крис Пайн, Кейси Аффлек, Бен Фостер, Эрик Бана, Холлидей Грейнджер, Джон Ортис, Кайл Галлнер, Джон Магаро, Грэм МакТавиш, Майкл Рэймонд-Джеймс, Бо Напп, Джош Стюарт, Абрахам Бенруби, Кейнан Лонсдейл, Рэйчел Броснахэн, Бенжамин Колдык, Мэттью Мехер, Джесси Габбар, Александр Кук, Дэнни Коннелли

О фильме: 18 февраля 1952 года на побережье Новой Англии обрушился сильнейший ураган. Танкер «Пендлтон», направлявшийся в Бостон, был буквально разорван на две части и тридцать два моряка оказались пойманными в ловушку на тонущем судне. Старший ассистент инженера Рэй Сайберт взял в свои руки управление и убедил своих товарищей начать работать сообща, чтобы добраться живыми до берега. Тем временем сообщения о крушении танкера поступили на станцию Береговой Охраны США в г. Чатаме, штат Массачусетс. Офицер Дэниэл Клафф принял решение начать рискованную операцию по спасению команды «Пендлтона». Четверо спасателей во главе с капитаном Берни Вебером на деревянной шлюпке со слабым двигателем и почти без средств навигации, должны будут дать отпор гигантским волнам и ураганному ветру, чтобы спасти терпящих бедствие моряков… Фильм основан на реальных событиях.

Релиз от: Автор релиза:

Страна: США
Студия: Bergsten Music, Walt Disney Pictures, Whitaker Entertainment
Продолжительность: 01:57:17
Перевод: Дублированный | Лицензия Blu-Ray EUR

Файл
Кодек: MPEG-4
Качество: BDRip 720p
Видео: 1280x534, 7147 Кbit/s, 23.976 fps
Звук:
Аудио #01: 48 kHz, AC3, 5.1, 640 Kbps | Дублированный, Лицензия Blu-Ray EUR |
Аудио #02: 48 kHz, AAC, 2.0, 128 Kbps | Дублированный, iTunes |
Аудио #03: 48 kHz, DTS, 5.1, 1510 kbps | Оригинал |
Субтитры: Русские (forced,full), украинские (full), английские (srt.SDH)

АНОНСЫ ПОПУЛЯРНЫХ РАЗДАЧ


Торрент обновлён, улучшен видеоряд и звук, добавлен украинский перевод!
General
Unique ID : 207719054450484916526286905756076062517 (0x9C453C153517D299BAAFD32A12E5B735)
Complete name : F:VideoThe finest stormThe.Finest.Hours...2016.BDRip.720p.ExKinoRay.mkv
Format : Matroska
Format version : Version 4 / Version 2
File size : 7.72 GiB
Duration : 1h 57mn
Overall bit rate : 9 399 Kbps
Movie name : The.Finest.Hours...2016.BDRip.720p.ExKinoRay
Encoded date : UTC 2016-06-08 05:24:42
Writing application : mkvmerge v8.3.0 ('Over the Horizon') 64bit
Writing library : libebml v1.3.1 + libmatroska v1.4.2

Video
ID : 1
Format : AVC
Format/Info : Advanced Video Codec
Format profile : High@L4.1
Format settings, CABAC : Yes
Format settings, ReFrames : 12 frames
Codec ID : V_MPEG4/ISO/AVC
Duration : 1h 57mn
Bit rate : 7 147 Kbps
Width : 1 280 pixels
Height : 534 pixels
Display aspect ratio : 2.40:1
Frame rate mode : Constant
Frame rate : 23.976 (24000/1001) fps
Color space : YUV
Chroma subsampling : 4:2:0
Bit depth : 8 bits
Scan type : Progressive
Bits/(Pixel*Frame) : 0.436
Stream size : 5.86 GiB (76%)
Title : The.Finest.Hours...2016.BDRip.720p.ExKinoRay.***селезень***
Writing library : x264 core 148 r2665+53 6629127 t_mod_Custom [8-bit@all X86_64]
Encoding settings : cabac=1 / ref=12 / deblock=1:-3:-3 / analyse=0x3:0x133 / me=umh / subme=11 / psy=1 / fade_compensate=0.00 / psy_rd=1.05:0.00 / mixed_ref=1 / me_range=32 / chroma_me=1 / trellis=2 / 8x8dct=1 / cqm=0 / deadzone=21,11 / fast_pskip=0 / chroma_qp_offset=-2 / threads=16 / lookahead_threads=2 / sliced_threads=0 / nr=0 / decimate=0 / interlaced=0 / bluray_compat=0 / constrained_intra=0 / fgo=0 / bframes=7 / b_pyramid=2 / b_adapt=2 / b_bias=0 / direct=3 / weightb=1 / open_gop=0 / weightp=2 / keyint=250 / keyint_min=23 / scenecut=40 / intra_refresh=0 / rc_lookahead=150 / rc=crf / mbtree=0 / crf=16.0000 / qcomp=0.70 / qpmin=0:0:0 / qpmax=69:69:69 / qpstep=4 / vbv_maxrate=50000 / vbv_bufsize=62500 / crf_max=0.0 / nal_hrd=none / filler=0 / ip_ratio=1.30 / pb_ratio=1.20 / aq=3:0.80 / aq-sensitivity=10.00 / aq-factor=1.00:1.00:1.00 / aq2=0 / aq3=0
Language : English
Default : Yes
Forced : No
Color range : Limited
Matrix coefficients : BT.709

Audio #1
ID : 2
Format : AC-3
Format/Info : Audio Coding 3
Mode extension : CM (complete main)
Format settings, Endianness : Big
Codec ID : A_AC3
Duration : 1h 57mn
Bit rate mode : Constant
Bit rate : 640 Kbps
Channel(s) : 6 channels
Channel positions : Front: L C R, Side: L R, LFE
Sampling rate : 48.0 KHz
Frame rate : 31.250 fps (1536 spf)
Compression mode : Lossy
Stream size : 537 MiB (7%)
Title : DUB [License Blu-ray EUR}
Language : Russian
Default : Yes
Forced : No

Audio #2
ID : 3
Format : AAC
Format/Info : Advanced Audio Codec
Format profile : HE-AAC / LC
Codec ID : A_AAC
Duration : 1h 57mn
Bit rate : 126 Kbps
Channel(s) : 2 channels
Channel positions : Front: L R
Sampling rate : 88.2 KHz / 44.1 KHz
Frame rate : 43.066 fps (1024 spf)
Compression mode : Lossy
Stream size : 106 MiB (1%)
Title : DUB [iTunes]
Language : Ukrainian
Default : No
Forced : No

Audio #3
ID : 4
Format : DTS
Format/Info : Digital Theater Systems
Mode : 16
Format settings, Endianness : Big
Codec ID : A_DTS
Duration : 1h 57mn
Bit rate mode : Constant
Bit rate : 1 509 Kbps
Channel(s) : 6 channels
Channel positions : Front: L C R, Side: L R, LFE
Sampling rate : 48.0 KHz
Frame rate : 93.750 fps (512 spf)
Bit depth : 24 bits
Compression mode : Lossy
Stream size : 1.24 GiB (16%)
Title : Original
Language : English
Default : No
Forced : No

Text #1
ID : 5
Format : UTF-8
Codec ID : S_TEXT/UTF8
Codec ID/Info : UTF-8 Plain Text
Duration : 1h 57mn
Bit rate : 1 bps
Count of elements : 17
Stream size : 1.11 KiB (0%)
Title : Forced [iTunes]
Language : Russian
Default : Yes
Forced : No

Text #2
ID : 6
Format : UTF-8
Codec ID : S_TEXT/UTF8
Codec ID/Info : UTF-8 Plain Text
Duration : 1h 57mn
Bit rate : 70 bps
Count of elements : 1172
Stream size : 60.1 KiB (0%)
Title : Full [iTunes]
Language : Russian
Default : No
Forced : No

Text #3
ID : 7
Format : UTF-8
Codec ID : S_TEXT/UTF8
Codec ID/Info : UTF-8 Plain Text
Duration : 1h 49mn
Bit rate : 75 bps
Count of elements : 1167
Stream size : 60.7 KiB (0%)
Title : Full [iTunes]
Language : Ukrainian
Default : No
Forced : No

Text #4
ID : 8
Format : UTF-8
Codec ID : S_TEXT/UTF8
Codec ID/Info : UTF-8 Plain Text
Duration : 1h 47mn
Bit rate : 47 bps
Count of elements : 1152
Stream size : 37.2 KiB (0%)
Title : Full [iTunes]
Language : English
Default : No
Forced : No

Text #5
ID : 9
Format : UTF-8
Codec ID : S_TEXT/UTF8
Codec ID/Info : UTF-8 Plain Text
Duration : 1h 54mn
Bit rate : 49 bps
Count of elements : 1417
Stream size : 41.4 KiB (0%)
Language : English
Default : No
Forced : No

Text #6
ID : 10
Format : UTF-8
Codec ID : S_TEXT/UTF8
Codec ID/Info : UTF-8 Plain Text
Duration : 1h 55mn
Bit rate : 54 bps
Count of elements : 1616
Stream size : 46.3 KiB (0%)
Title : SDH
Language : English
Default : No
Forced : No

Menu
00:00:00.000 : en:00:00:00.000
00:09:13.887 : en:00:09:13.887
00:14:22.195 : en:00:14:22.195
00:19:52.108 : en:00:19:52.108
00:22:56.792 : en:00:22:56.792
00:28:34.379 : en:00:28:34.379
00:34:05.210 : en:00:34:05.210
00:36:59.384 : en:00:36:59.384
00:42:50.902 : en:00:42:50.902
00:45:01.157 : en:00:45:01.157
00:46:59.442 : en:00:46:59.442
00:48:44.463 : en:00:48:44.463
00:50:12.551 : en:00:50:12.551
00:55:53.141 : en:00:55:53.141
01:04:47.967 : en:01:04:47.967
01:08:58.634 : en:01:08:58.634
01:11:38.836 : en:01:11:38.836
01:16:16.489 : en:01:16:16.489
01:20:30.325 : en:01:20:30.325
01:33:30.480 : en:01:33:30.480
01:42:27.641 : en:01:42:27.641
01:49:40.324 : en:01:49:40.324



Скачать И.грянул.шторм.The.Finest.Hours.(Крэйг.Гиллеспи).[2016.боевик.триллер.драма.история.BDRip].[720p].[Dub.(Лицензия)]+[Ukr]+[Eng]+[Sub.Rus.Ukr.Eng].torrent без регистрации
Золото ЗОЛОТАЯ РАЗДАЧА! СКАЧАННОЕ НЕ ЗАСЧИТЫВАЕТСЯ! Золото
Дата: Зарегистрирован   [ Тип: внутренний ] Как тут cкачать?
MAGNET ссылка
MAGNET ссылка


Скачать .torrent

39 KB

Статус: проверено DHT
Скачан: торрент - 1124 раз, раздача полностью - 216 раз
Размер: 7,72 GB
Оценка:  5 (Голосов: 2)
Поблагодарили: 21
Поделиться ссылкой на эту раздачу с друзьями:
В контактеFacebookОдноклассникиTwitterLivejournalМой МирLiveinternet
 

 
Показать сообщения:    


Вы не можете начинать темы
Вы не можете отвечать на сообщения
Вы не можете редактировать свои сообщения
Вы не можете удалять свои сообщения
Вы не можете голосовать в опросах
Вы не можете прикреплять файлы к сообщениям
Вы можете скачивать файлы