Loading...
Error

Скачать Образцовый самец 2 / Zoolander 2 (Бен Стиллер) [2016, комедия, BDRemux] [1080p] [Dub (Line)]+[Eng]+[Sub Eng] торрент без регистрации

Статистика раздачи
Размер:  23,11 GB   |    Скачан:  105 раз
Сидов:  1  [  0 KB/s  ]  
 
 
 
Автор Сообщение

МихаНЕзатор

[] 

Информация о фильме
Название: Образцовый самец 2
Оригинальное название: Zoolander 2
Год выхода: 2016
Жанр: Комедия
Режиссер: Бен Стиллер

В ролях: Бен Стиллер, Оуэн Уилсон, Пенелопа Крус, Кристен Уиг, Уилл Феррелл, Бенедикт Камбербэтч, Оливия Манн, Кристин Тейлор, Ариана Гранде, Джастин Бибер, Билли Зейн, Мадалина Диана Генея, Сайрус Арнольд, Фред Армисен, Канье Уэст, Антонио Те Майохо, Мика, Льюис Хэмилтон, Евгения Темпеста, Алан Капелли Гетц

О фильме: Триумфальное возвращение на подиумы когда-то топовых, а ныне слегка потрепанных мужчин-моделей Дерека Зуландера и Ханселя в комедии о мире, где для обретения всеобщей популярности достаточно одного селфи.

Релиз от: Автор релиза:

Страна: США
Студия: Red Hour Films, Scott Rudin Productions
Продолжительность: 01:41:47
Перевод: Дублированный | iTunes

Файл
Кодек: MPEG-4
Качество: BDRemux 1080p
Видео: 1920x1080, 25.9 Mbit/s, 23.976 fps
Звук:
Аудио #01: 48 kHz, AC3, 5.1, 384 Kbps | Дублированный, iTunes |
Аудио #02: 48 kHz, DTS-HD MA, 5.1, 6240 kbps | Оригинал |
Субтитры: Английские

АНОНСЫ ПОПУЛЯРНЫХ РАЗДАЧ


Торрент обновлён, улучшен видеоряд и звук!
General
Unique ID : 222184473856795086100402188345099962737 (0xA7272C52C37BEC32B418C14C6A4C4971)
Complete name : F:VideoZoolander.2.2016.BREMUX.1080p.ExKinoRay.mkv
Format : Matroska
Format version : Version 4 / Version 2
File size : 23.1 GiB
Duration : 1h 41mn
Overall bit rate mode : Variable
Overall bit rate : 32.5 Mbps
Movie name : Zoolander.2.2016.BREMUX.1080p.ExKinoRay
Encoded date : UTC 2016-06-07 02:57:40
Writing application : mkvmerge v8.3.0 ('Over the Horizon') 64bit
Writing library : libebml v1.3.1 + libmatroska v1.4.2

Video
ID : 1
Format : AVC
Format/Info : Advanced Video Codec
Format profile : High@L4.1
Format settings, CABAC : Yes
Format settings, ReFrames : 4 frames
Codec ID : V_MPEG4/ISO/AVC
Duration : 1h 41mn
Bit rate mode : Variable
Bit rate : 25.9 Mbps
Maximum bit rate : 28.0 Mbps
Width : 1 920 pixels
Height : 1 080 pixels
Display aspect ratio : 16:9
Frame rate mode : Constant
Frame rate : 23.976 (24000/1001) fps
Color space : YUV
Chroma subsampling : 4:2:0
Bit depth : 8 bits
Scan type : Progressive
Bits/(Pixel*Frame) : 0.520
Stream size : 18.4 GiB (80%)
Title : Zoolander.2.2016.BREMUX.1080p.ExKinoRay.***селезень***
Language : English
Default : Yes
Forced : No

Audio #1
ID : 2
Format : AC-3
Format/Info : Audio Coding 3
Mode extension : CM (complete main)
Format settings, Endianness : Big
Codec ID : A_AC3
Duration : 1h 41mn
Bit rate mode : Constant
Bit rate : 384 Kbps
Channel(s) : 6 channels
Channel positions : Front: L C R, Side: L R, LFE
Sampling rate : 48.0 KHz
Frame rate : 31.250 fps (1536 spf)
Compression mode : Lossy
Delay relative to video : 2s 16ms
Stream size : 279 MiB (1%)
Title : DUB [iTunes]
Language : Russian
Default : Yes
Forced : No

Audio #2
ID : 3
Format : DTS
Format/Info : Digital Theater Systems
Format profile : MA / Core
Mode : 16
Format settings, Endianness : Big
Codec ID : A_DTS
Duration : 1h 41mn
Bit rate mode : Variable / Constant
Bit rate : 6 240 Kbps / 1 509 Kbps
Channel(s) : 8 channels / 6 channels
Channel positions : Front: L C R, Side: L R, Back: L R, LFE / Front: L C R, Side: L R, LFE
Sampling rate : 48.0 KHz
Frame rate : 93.750 fps (512 spf)
Bit depth : 24 bits
Compression mode : Lossless / Lossy
Delay relative to video : 1s 1ms
Stream size : 4.44 GiB (19%)
Title : Original
Language : English
Default : No
Forced : No

Text #1
ID : 4
Format : UTF-8
Codec ID : S_TEXT/UTF8
Codec ID/Info : UTF-8 Plain Text
Duration : 1h 33mn
Bit rate : 64 bps
Count of elements : 1383
Stream size : 44.2 KiB (0%)
Title : Full
Language : English
Default : No
Forced : No

Text #2
ID : 5
Format : UTF-8
Codec ID : S_TEXT/UTF8
Codec ID/Info : UTF-8 Plain Text
Duration : 1h 34mn
Bit rate : 68 bps
Count of elements : 1686
Stream size : 47.8 KiB (0%)
Title : SDH
Language : English
Default : No
Forced : No

Menu
00:00:00.000 : en:Chapter 01
00:07:40.877 : en:Chapter 02
00:12:25.370 : en:Chapter 03
00:15:26.217 : en:Chapter 04
00:22:49.868 : en:Chapter 05
00:28:41.136 : en:Chapter 06
00:31:07.074 : en:Chapter 07
00:36:42.617 : en:Chapter 08
00:42:54.614 : en:Chapter 09
00:48:54.974 : en:Chapter 10
00:56:57.039 : en:Chapter 11
01:07:00.225 : en:Chapter 12
01:14:33.010 : en:Chapter 13
01:18:17.067 : en:Chapter 14
01:23:42.226 : en:Chapter 15
01:33:15.548 : en:Chapter 16



Скачать Образцовый.самец.2.Zoolander.2.(Бен.Стиллер).[2016.комедия.BDRemux].[1080p].[Dub.(Line)]+[Eng]+[Sub.Eng].torrent без регистрации
Золото ЗОЛОТАЯ РАЗДАЧА! СКАЧАННОЕ НЕ ЗАСЧИТЫВАЕТСЯ! Золото
Дата: Зарегистрирован   [ Тип: внутренний ] Как тут cкачать?
MAGNET ссылка
MAGNET ссылка


Скачать .torrent

116 KB

Статус: проверено DHT
Скачан: торрент - 105 раз, раздача полностью - 53 раз
Размер: 23,11 GB
Оценка:  - (Голосов: 0)
Поблагодарили: 3
Поделиться ссылкой на эту раздачу с друзьями:
В контактеFacebookОдноклассникиTwitterLivejournalМой МирLiveinternet
 

 
Показать сообщения:    


Вы не можете начинать темы
Вы не можете отвечать на сообщения
Вы не можете редактировать свои сообщения
Вы не можете удалять свои сообщения
Вы не можете голосовать в опросах
Вы не можете прикреплять файлы к сообщениям
Вы можете скачивать файлы