Loading...
Error

Скачать Специальный полуночный выпуск / Midnight Special (Джефф Николс) [2016, фантастика, триллер, приключения, BDRip] [1080p] [MVO (Paradox & Omskbird records)]+[Eng]+[Sub Eng] торрент без регистрации

Статистика раздачи
Размер:  13,36 GB   |    Скачан:  91 раз
Сидов:  1  [  0 KB/s  ]  
 
 
 
Автор Сообщение

МихаНЕзатор

[] 

Информация о фильме
Название: Специальный полуночный выпуск
Оригинальное название: Midnight Special
Год выхода: 2016
Жанр: фантастика, триллер, драма, приключения
Режиссер: Джефф Николс

В ролях: Майкл Шеннон, Джоэл Эдгертон, Кирстен Данст, Джейден Либерер, Адам Драйвер, Билл Кэмп, Скотт Хэйз, Сэм Шепард, Пол Спаркс, Дэвид Дженсен

О фильме: «Midnight Special» – фантастическая драма американского сценариста и постановщика, обладателя «Золотой пальмовой ветви» Джеффа Николса, которого любители кино знают по криминальной драме «Мад». У супругов, которые уже и не надеялись стать родителями, родился сын – очаровательный Алтон. Вначале пара радовалась необычным способностям ребенка, но чем старше он становился, тем больше родители понимали: паранормальные способности Алтона – божье наказание. Тем более что парень не умеет себя контролировать: он большой хвастун, использующий свой дар в хулиганских целях. Служба госбезопасности, заинтересовавшись Алтоном, сделала вывод: он опасен для общества. Отец Рой вместе с сыном вынужден скрываться. Их ищут не только спецслужбы, но и члены религиозной секты. Однако правительству Алтон нужен с корыстной целью. А вот Рой хочет научить сына управлять своими возможностями…

Релиз от: Автор релиза:

Страна: США
Студия: Faliro House Productions, Tri-State Pictures, Warner Bros
Продолжительность: 01:50:44
Перевод: Любительский многоголосый (закадровый) | Paradox & Omskbird records

Файл
Кодек: MPEG-4
Качество: BDRip 1080p
Видео: 1920x800, 13.6 Мbit/s, 23.976 fps
Звук:
Аудио #01: 48 kHz, DTS, 5.1, 1510 Kbps | Любительский многоголосый (закадровый), Paradox & Omskbird records |DTS
Аудио #02: 48 kHz, AC3, 5.1, 448 Kbps | Любительский многоголосый (закадровый), Paradox & Omskbird records |AC3
Аудио #03: 48 kHz, DTS, 5.1, 1510 kbps | Оригинал |DTS
Субтитры: Английские

АНОНСЫ ПОПУЛЯРНЫХ РАЗДАЧ
General
Unique ID : 195051139163758423709330813091263482839 (0x92BD7BA348238A038EE0530398230BD7)
Complete name : F:VideoMidnight.Special.2016.BDRip.1080p.ExKinoRay.mkv
Format : Matroska
Format version : Version 4 / Version 2
File size : 13.4 GiB
Duration : 1h 51mn
Overall bit rate : 17.1 Mbps
Movie name : Midnight.Special.2016.BDRip.1080p.ExKinoRay
Encoded date : UTC 2016-06-09 03:21:03
Writing application : mkvmerge v8.3.0 ('Over the Horizon') 64bit
Writing library : libebml v1.3.1 + libmatroska v1.4.2

Video
ID : 1
Format : AVC
Format/Info : Advanced Video Codec
Format profile : High@L4.1
Format settings, CABAC : Yes
Format settings, ReFrames : 5 frames
Codec ID : V_MPEG4/ISO/AVC
Duration : 1h 51mn
Bit rate : 13.6 Mbps
Width : 1 920 pixels
Height : 800 pixels
Display aspect ratio : 2.40:1
Frame rate mode : Constant
Frame rate : 23.976 (24000/1001) fps
Color space : YUV
Chroma subsampling : 4:2:0
Bit depth : 8 bits
Scan type : Progressive
Bits/(Pixel*Frame) : 0.370
Stream size : 10.7 GiB (80%)
Writing library : x264 core 148 r2692kMod 64f4e24
Encoding settings : cabac=1 / ref=5 / deblock=1:-3:-3 / analyse=0x3:0x113 / me=umh / subme=11 / psy=1 / fade_compensate=0.00 / psy_rd=1.05:0.00 / mixed_ref=1 / me_range=32 / chroma_me=1 / trellis=2 / 8x8dct=1 / cqm=0 / deadzone=21,11 / fast_pskip=0 / chroma_qp_offset=-2 / threads=12 / lookahead_threads=2 / sliced_threads=0 / nr=0 / decimate=0 / interlaced=0 / bluray_compat=0 / constrained_intra=0 / fgo=0 / bframes=8 / b_pyramid=2 / b_adapt=2 / b_bias=0 / direct=1 / weightb=1 / open_gop=0 / weightp=2 / keyint=240 / keyint_min=23 / scenecut=40 / intra_refresh=0 / rc_lookahead=40 / rc=crf / mbtree=0 / crf=17.0000 / qcomp=0.70 / qpmin=0 / qpmax=69 / qpstep=4 / vbv_maxrate=62500 / vbv_bufsize=78125 / crf_max=0.0 / nal_hrd=none / filler=0 / ip_ratio=1.30 / pb_ratio=1.20 / aq=1:0.70 / zones=574,886,crf=14
Language : English
Default : Yes
Forced : No

Audio #1
ID : 2
Format : DTS
Format/Info : Digital Theater Systems
Mode : 16
Format settings, Endianness : Big
Codec ID : A_DTS
Duration : 1h 51mn
Bit rate mode : Constant
Bit rate : 1 509 Kbps
Channel(s) : 6 channels
Channel positions : Front: L C R, Side: L R, LFE
Sampling rate : 48.0 KHz
Frame rate : 93.750 fps (512 spf)
Bit depth : 24 bits
Compression mode : Lossy
Stream size : 1.18 GiB (9%)
Title : MVO-DTS [Paradox & Omskbird records]
Language : Russian
Default : Yes
Forced : No

Audio #2
ID : 3
Format : AC-3
Format/Info : Audio Coding 3
Mode extension : CM (complete main)
Format settings, Endianness : Big
Codec ID : A_AC3
Duration : 1h 51mn
Bit rate mode : Constant
Bit rate : 448 Kbps
Channel(s) : 6 channels
Channel positions : Front: L C R, Side: L R, LFE
Sampling rate : 48.0 KHz
Frame rate : 31.250 fps (1536 spf)
Compression mode : Lossy
Stream size : 359 MiB (3%)
Title : MVO-AC3 [Paradox & Omskbird records]
Language : Russian
Default : No
Forced : No

Audio #3
ID : 4
Format : DTS
Format/Info : Digital Theater Systems
Mode : 16
Format settings, Endianness : Big
Codec ID : A_DTS
Duration : 1h 51mn
Bit rate mode : Constant
Bit rate : 1 509 Kbps
Channel(s) : 6 channels
Channel positions : Front: L C R, Side: L R, LFE
Sampling rate : 48.0 KHz
Frame rate : 93.750 fps (512 spf)
Bit depth : 24 bits
Compression mode : Lossy
Stream size : 1.18 GiB (9%)
Title : Original-DTS
Language : English
Default : No
Forced : No

Text #1
ID : 5
Format : UTF-8
Codec ID : S_TEXT/UTF8
Codec ID/Info : UTF-8 Plain Text
Duration : 1h 44mn
Bit rate : 26 bps
Count of elements : 769
Stream size : 20.4 KiB (0%)
Title : Full
Language : English
Default : No
Forced : No

Text #2
ID : 6
Format : UTF-8
Codec ID : S_TEXT/UTF8
Codec ID/Info : UTF-8 Plain Text
Duration : 1h 51mn
Bit rate : 28 bps
Count of elements : 899
Stream size : 23.5 KiB (0%)
Title : SDH
Language : English
Default : No
Forced : No

Menu
00:00:00.000 : en:Chapter 1
00:12:53.189 : en:Chapter 2
00:23:34.413 : en:Chapter 3
00:31:31.681 : en:Chapter 4
00:41:39.539 : en:Chapter 5
00:51:50.107 : en:Chapter 6
01:01:02.242 : en:Chapter 7
01:13:30.239 : en:Chapter 8
01:24:15.217 : en:Chapter 9
01:34:09.060 : en:Chapter 10
01:46:35.014 : en:Chapter 11



Скачать Специальный.полуночный.выпуск.Midnight.Special.(Джефф.Николс).[2016.фантастика.триллер.приключения.BDRip].[1080p].[MVO.(Paradox.&.Omskbird.records)]+[Eng]+[Sub.Eng].torrent без регистрации
Золото ЗОЛОТАЯ РАЗДАЧА! СКАЧАННОЕ НЕ ЗАСЧИТЫВАЕТСЯ! Золото
Дата: Зарегистрирован   [ Тип: внутренний ] Как тут cкачать?
MAGNET ссылка
MAGNET ссылка


Скачать .torrent

68 KB

Статус: проверено DHT
Скачан: торрент - 91 раз, раздача полностью - 124 раз
Размер: 13,36 GB
Оценка:  - (Голосов: 0)
Поблагодарили: 3
Поделиться ссылкой на эту раздачу с друзьями:
В контактеFacebookОдноклассникиTwitterLivejournalМой МирLiveinternet
 

 
Показать сообщения:    


Вы не можете начинать темы
Вы не можете отвечать на сообщения
Вы не можете редактировать свои сообщения
Вы не можете удалять свои сообщения
Вы не можете голосовать в опросах
Вы не можете прикреплять файлы к сообщениям
Вы можете скачивать файлы