Loading...
Error

Скачать 13 часов: Тайные солдаты Бенгази / 13 Hours: The Secret Soldiers of Benghazi (Майкл Бэй) [2016, Боевик, триллер, драма, военный, BDRip] [720p] [DUB] [Лицензия] торрент без регистрации

Статистика раздачи
Размер:  3,58 GB   |    Скачан:  141 раз
Сидов:  1  [  0 KB/s  ]  
 
 

Понравился ли вам этот фильм?

Да   25%  25%  [ 2 ]
Нет   0%  0%  [ 0 ]
Не собираюсь смотреть   75%  75%  [ 6 ]

Всего проголосовало : 8

 
Автор Сообщение

Woodworker

[] 


13 часов: Тайные солдаты Бенгази / 13 Hours: The Secret Soldiers of Benghazi


Год выпуска: 2016
Выпущено: США
Жанр: Боевик, триллер, драма, военный
Продолжительность: 02:24:29
Перевод: Профессиональный (полное дублирование) [Лицензия]
Субтитры: русские (Forced), русские, английские

Режиссер: Майкл Бэй

В ролях: Джон Красински, Джеймс Бэдж Дэйл, Пабло Шрайбер, Дэвид Денман, Доминик Фумуса, Макс Мартини, Алексия Бальер, Дэвид Костабайл, Пейман Моаади, Мэтт Летчер

Описание: 2012 год. Бенгази, Ливия. Группа террористов решает «отпраздновать» события 11 сентября нападением на американское посольство. Шестерке бойцов из элитного спецотряда приказано вмешаться только в крайнем случае. Но когда под угрозой десятки жизней, долг и совесть берут верх над субординацией. И мужественные солдаты без колебаний вступают в бой с яростной группировкой боевиков. Бой, который для всех шестерых, скорее всего, станет последним.







Качество: BDRip 720p
Формат: MKV
Видео кодек: H.264
Аудио кодек: AC3
Видео: 1280×536 (2.40:1), 23,976 fps, AVC (H.264), High@L4.1, ~3100 Kbps avg, 0.188 bit/pixel
Аудио: 48 kHz, AC3 Dolby Digital, 3/2 (L,C,R,l,r) + LFE ch, ~448.00 kbps

General
Unique ID : 253176432527084158776561718122564307871 (0xBE7801DBE72FC13D857E30B141384B9F)
Complete name : J:\Сборка\13 часов. Тайные солдаты Бенгази. - 13.Hours.The.Secret.Soldiers.of.Benghazi.2016.720p.BDRip.x264.АС3.mkv
Format : Matroska
Format version : Version 4 / Version 2
File size : 3.58 GiB
Duration : 2h 24mn
Overall bit rate : 3 548 Kbps
Encoded date : UTC 2016-06-05 10:26:09
Writing application : mkvmerge v7.3.0 ('Nouages') 32bit built on Oct 22 2014 18:44:01
Writing library : libebml v1.3.0 + libmatroska v1.4.1
DURATION : 02:14:24.578000000
NUMBER_OF_FRAMES : 2043
NUMBER_OF_BYTES : 66162
_STATISTICS_WRITING_APP : mkvmerge v7.3.0 ('Nouages') 32bit built on Oct 22 2014 18:44:01
_STATISTICS_WRITING_DATE_UTC : 2016-06-05 10:26:09
_STATISTICS_TAGS : BPS DURATION NUMBER_OF_FRAMES NUMBER_OF_BYTES
Video #1
ID : 1
Format : AVC
Format/Info : Advanced Video Codec
Format profile : High@L4.1
Format settings, CABAC : Yes
Format settings, ReFrames : 12 frames
Codec ID : V_MPEG4/ISO/AVC
Duration : 2h 24mn
Bit rate : 3 100 Kbps
Width : 1 280 pixels
Height : 536 pixels
Display aspect ratio : 2.40:1
Frame rate mode : Constant
Frame rate : 23.976 fps
Color space : YUV
Chroma subsampling : 4:2:0
Bit depth : 8 bits
Scan type : Progressive
Bits/(Pixel*Frame) : 0.188
Stream size : 3.06 GiB (85%)
Writing library : x264 core 148 r2692kMod 64f4e24
Encoding settings : cabac=1 / ref=12 / deblock=1:-3:-3 / analyse=0x3:0x133 / me=umh / subme=10 / psy=1 / fade_compensate=0.00 / psy_rd=1.00:0.00 / mixed_ref=1 / me_range=64 / chroma_me=1 / trellis=2 / 8x8dct=1 / cqm=0 / deadzone=21,11 / fast_pskip=0 / chroma_qp_offset=-2 / threads=12 / lookahead_threads=3 / sliced_threads=0 / nr=0 / decimate=1 / interlaced=0 / bluray_compat=0 / constrained_intra=0 / fgo=0 / bframes=11 / b_pyramid=2 / b_adapt=2 / b_bias=0 / direct=3 / weightb=1 / open_gop=0 / weightp=2 / keyint=240 / keyint_min=23 / scenecut=40 / intra_refresh=0 / rc_lookahead=240 / rc=2pass / mbtree=1 / bitrate=3100 / ratetol=1.0 / qcomp=0.60 / qpmin=0 / qpmax=69 / qpstep=4 / cplxblur=20.0 / qblur=0.5 / vbv_maxrate=40000 / vbv_bufsize=30000 / nal_hrd=none / filler=0 / ip_ratio=1.40 / aq=1:1.00
Default : Yes
Forced : No
Color primaries : BT.709
Transfer characteristics : BT.709
Matrix coefficients : BT.709
Audio #2
ID : 2
Format : AC-3
Format/Info : Audio Coding 3
Mode extension : CM (complete main)
Format settings, Endianness : Big
Codec ID : A_AC3
Duration : 2h 24mn
Bit rate mode : Constant
Bit rate : 448 Kbps
Channel(s) : 6 channels
Channel positions : Front: L C R, Side: L R, LFE
Sampling rate : 48.0 KHz
Bit depth : 16 bits
Compression mode : Lossy
Stream size : 463 MiB (13%)
Title : Дубляж
Language : Russian
Default : Yes
Forced : No
Text #3
ID : 3
Format : UTF-8
Codec ID : S_TEXT/UTF8
Codec ID/Info : UTF-8 Plain Text
Title : Forced
Language : Russian
Default : Yes
Forced : No
Text #4
ID : 4
Format : UTF-8
Codec ID : S_TEXT/UTF8
Codec ID/Info : UTF-8 Plain Text
Language : Russian
Default : No
Forced : No
Text #5
ID : 5
Format : UTF-8
Codec ID : S_TEXT/UTF8
Codec ID/Info : UTF-8 Plain Text
Language : English
Default : No
Forced : No





Скачать 13.часов.Тайные.солдаты.Бенгази.13.Hours.The.Secret.Soldiers.of.Benghazi.(Майкл.Бэй).[2016.Боевик.триллер.драма.военный.BDRip].[720p].[DUB].[Лицензия].torrent без регистрации
Золото ЗОЛОТАЯ РАЗДАЧА! СКАЧАННОЕ НЕ ЗАСЧИТЫВАЕТСЯ! Золото
Дата: Зарегистрирован   [ Тип: внутренний ] Как тут cкачать?
MAGNET ссылка
MAGNET ссылка


Скачать .torrent

18 KB

Статус: проверено DHT
Скачан: торрент - 141 раз, раздача полностью - 281 раз
Размер: 3,58 GB
Оценка:  5 (Голосов: 3)
Поблагодарили: 9
Поделиться ссылкой на эту раздачу с друзьями:
В контактеFacebookОдноклассникиTwitterLivejournalМой МирLiveinternet
 

 

Woodworker

[] 

Есть вариант на 1080р, если что, обращайтесь.
 

копылов геннадий николаев

[] 

а сколько весит вариант на 1080р ?
 

Woodworker

[] 

копылов геннадий николаев писал(а):

а сколько весит вариант на 1080р ?
Вес почти такой же. 3.8 ГБ.
 

копылов геннадий николаев

[] 

Выложи пожалуйста.Буду очень признателен!
 

Woodworker

[] 

копылов геннадий николаев писал(а):

Выложи пожалуйста.Буду очень признателен!
Тогда завтра оформлю. Сейчас хочу сам фильм посмотреть.
 

agent00007

[] 

В шапке надо дописать субтитры
 

Woodworker

[] 

Раздал 23 ГБ., дальше помогайте друг другу сами. С раздачи ушёл.
 
Показать сообщения:    


Вы не можете начинать темы
Вы не можете отвечать на сообщения
Вы не можете редактировать свои сообщения
Вы не можете удалять свои сообщения
Вы не можете голосовать в опросах
Вы не можете прикреплять файлы к сообщениям
Вы можете скачивать файлы