Loading...
Error

Скачать 13 часов: Тайные солдаты Бенгази / 13 Hours: The Secret Soldiers of Benghazi (Майкл Бэй) [2016, Боевик, триллер, драма, военный, BDRip] [1080p] [Dub] [Лицензия] торрент без регистрации

Статистика раздачи
Размер:  3,8 GB   |    Скачан:  140 раз

Полного источника не было: 2 месяца 20 дней

 
 

Понравился ли вам этот фильм?

Да   58%  58%  [ 7 ]
Нет   16%  16%  [ 2 ]
Не собираюсь смотреть   25%  25%  [ 3 ]

Всего проголосовало : 12

 
Автор Сообщение

Woodworker

[] 


13 часов: Тайные солдаты Бенгази / 13 Hours: The Secret Soldiers of Benghazi


Год выпуска: 2016
Выпущено: США
Жанр: Боевик, триллер, драма, военный
Продолжительность: 02:24:29
Перевод: Профессиональный (полное дублирование) [лицензия]
Субтитры: русские (Forced), русские, английские

Режиссер: Майкл Бэй

В ролях: Джон Красински, Джеймс Бэдж Дэйл, Пабло Шрайбер, Дэвид Денман, Доминик Фумуса, Макс Мартини, Алексия Бальер, Дэвид Костабайл, Пейман Моаади, Мэтт Летчер

Описание: 2012 год. Бенгази, Ливия. Группа террористов решает «отпраздновать» события 11 сентября нападением на американское посольство. Шестерке бойцов из элитного спецотряда приказано вмешаться только в крайнем случае. Но когда под угрозой десятки жизней, долг и совесть берут верх над субординацией. И мужественные солдаты без колебаний вступают в бой с яростной группировкой боевиков. Бой, который для всех шестерых, скорее всего, станет последним.







Качество: BDRip 1080p
Формат: MKV
Видео кодек: H.264
Аудио кодек: AC3
Видео: 1920x800 (2.40:1), 23,976 fps, AVC (H.264), High@L4.1, ~3315 Kbps avg, 0.090 bit/pixel
Аудио: 48 kHz, AC3 Dolby Digital, 3/2 (L,C,R,l,r) + LFE ch, ~448.00 kbps

General
Unique ID : 186372613196226721253422888237561987835 (0x8C360F45AB8B4EED961006EDFC06C2FB)
Complete name : J:\Сборка\13 часов. Тайные солдаты Бенгази. - 13.Hours.The.Secret.Soldiers.of.Benghazi.2016.1080p.BluRay.x264.АС3.mkv
Format : Matroska
Format version : Version 4 / Version 2
File size : 3.80 GiB
Duration : 2h 24mn
Overall bit rate : 3 764 Kbps
Encoded date : UTC 2016-06-05 11:00:58
Writing application : mkvmerge v7.3.0 ('Nouages') 32bit built on Oct 22 2014 18:44:01
Writing library : libebml v1.3.0 + libmatroska v1.4.1
DURATION : 02:14:24.578000000
NUMBER_OF_FRAMES : 2043
NUMBER_OF_BYTES : 66162
_STATISTICS_WRITING_APP : mkvmerge v7.3.0 ('Nouages') 32bit built on Oct 22 2014 18:44:01
_STATISTICS_WRITING_DATE_UTC : 2016-06-05 11:00:58
_STATISTICS_TAGS : BPS DURATION NUMBER_OF_FRAMES NUMBER_OF_BYTES
Video #1
ID : 1
Format : AVC
Format/Info : Advanced Video Codec
Format profile : High@L4.1
Format settings, CABAC : Yes
Format settings, ReFrames : 5 frames
Codec ID : V_MPEG4/ISO/AVC
Duration : 2h 24mn
Bit rate : 3 315 Kbps
Width : 1 920 pixels
Height : 800 pixels
Display aspect ratio : 2.40:1
Frame rate mode : Constant
Frame rate : 23.976 fps
Color space : YUV
Chroma subsampling : 4:2:0
Bit depth : 8 bits
Scan type : Progressive
Bits/(Pixel*Frame) : 0.090
Stream size : 3.27 GiB (86%)
Writing library : x264 core 148 r2638 7599210
Encoding settings : cabac=1 / ref=5 / deblock=1:-1:-1 / analyse=0x3:0x133 / me=umh / subme=11 / psy=1 / psy_rd=1.00:0.15 / mixed_ref=1 / me_range=32 / chroma_me=1 / trellis=2 / 8x8dct=1 / cqm=0 / deadzone=21,11 / fast_pskip=0 / chroma_qp_offset=-3 / threads=12 / lookahead_threads=1 / sliced_threads=0 / nr=0 / decimate=1 / interlaced=0 / bluray_compat=0 / constrained_intra=0 / bframes=4 / b_pyramid=2 / b_adapt=2 / b_bias=0 / direct=3 / weightb=1 / open_gop=0 / weightp=2 / keyint=240 / keyint_min=23 / scenecut=40 / intra_refresh=0 / rc_lookahead=60 / rc=2pass / mbtree=1 / bitrate=3315 / ratetol=1.0 / qcomp=0.60 / qpmin=0 / qpmax=69 / qpstep=4 / cplxblur=20.0 / qblur=0.5 / vbv_maxrate=62500 / vbv_bufsize=78125 / nal_hrd=none / filler=0 / ip_ratio=1.40 / aq=1:1.00
Default : Yes
Forced : No
Audio #2
ID : 2
Format : AC-3
Format/Info : Audio Coding 3
Mode extension : CM (complete main)
Format settings, Endianness : Big
Codec ID : A_AC3
Duration : 2h 24mn
Bit rate mode : Constant
Bit rate : 448 Kbps
Channel(s) : 6 channels
Channel positions : Front: L C R, Side: L R, LFE
Sampling rate : 48.0 KHz
Bit depth : 16 bits
Compression mode : Lossy
Stream size : 463 MiB (12%)
Title : Дубляж
Language : Russian
Default : Yes
Forced : No
Text #3
ID : 3
Format : UTF-8
Codec ID : S_TEXT/UTF8
Codec ID/Info : UTF-8 Plain Text
Title : Forced
Language : Russian
Default : Yes
Forced : No
Text #4
ID : 4
Format : UTF-8
Codec ID : S_TEXT/UTF8
Codec ID/Info : UTF-8 Plain Text
Language : Russian
Default : No
Forced : No
Text #5
ID : 5
Format : UTF-8
Codec ID : S_TEXT/UTF8
Codec ID/Info : UTF-8 Plain Text
Language : English
Default : No
Forced : No





Скачать 13.часов.Тайные.солдаты.Бенгази.13.Hours.The.Secret.Soldiers.of.Benghazi.(Майкл.Бэй).[2016.Боевик.триллер.драма.военный.BDRip].[1080p].[Dub].[Лицензия].torrent без регистрации
Золото ЗОЛОТАЯ РАЗДАЧА! СКАЧАННОЕ НЕ ЗАСЧИТЫВАЕТСЯ! Золото
Дата: Зарегистрирован   [ Тип: внутренний ] Как тут cкачать?
MAGNET ссылка
MAGNET ссылка


Скачать .torrent

19 KB

Статус: проверено
Скачан: торрент - 140 раз, раздача полностью - 219 раз
Размер: 3,8 GB
Оценка:  5 (Голосов: 2)
Поблагодарили: 12
Поделиться ссылкой на эту раздачу с друзьями:
В контактеFacebookОдноклассникиTwitterLivejournalМой МирLiveinternet
 

 

Woodworker

[] 

Rip залил по просьбе пользователя - копылов геннадий николаев
 

asd-anane

[] 

Спасибо ОГРОМНОЕ!!! Мне ваши рипы ОЧЕНЬ нравяться ay
 

Woodworker

[] 

asd-anane писал(а):

Спасибо ОГРОМНОЕ!!! Мне ваши рипы ОЧЕНЬ нравяться ay
А что же молчали? ab
 

копылов геннадий николаев

[] 

Огромное тебе спасибо Woodworker!
 

Woodworker

[] 

копылов геннадий николаев писал(а):

Огромное тебе спасибо Woodworker!
Приятного просмотра.
 

rsmu

[] 

встаньте кто-нибудь на раздачу... на 95% умер(((
 

ziroku

[] 

97.8%

дайте докачать
 

asd-anane

[] 

Когда можно поймать этого Неуловимого 1 сида? Та же песня, давно стоит на 97.8 ( Нужно добить, чтоб недельку повисеть)
 

Woodworker

[] 

rsmu писал(а):

встаньте кто-нибудь на раздачу... на 95% умер(((

ziroku писал(а):

97.8%

дайте докачать

asd-anane писал(а):

Когда можно поймать этого Неуловимого 1 сида? Та же песня, давно стоит на 97.8 ( Нужно добить, чтоб недельку повисеть)
Вот по этой причине особого желания не возникает заливать больше Rip'ов. У меня много Rip'ов, как стареньких фильмов, так и последних новинок, но из-за такого отношения желание пропадает. Скачавшие люди были, но они в ужасе с раздачи убежали. Специально не включал раздачу, думал может кто-то появится, но нет. Вечером раздам, а дальше смотрите сами.
 
Показать сообщения:    


Вы не можете начинать темы
Вы не можете отвечать на сообщения
Вы не можете редактировать свои сообщения
Вы не можете удалять свои сообщения
Вы не можете голосовать в опросах
Вы не можете прикреплять файлы к сообщениям
Вы можете скачивать файлы