Loading...
Error

Скачать Второе дыхание (01-04 из 04) (Олег Туранский) [2016, мелодрама, SATRip-AVC] торрент без регистрации

Статистика раздачи
Размер:  2,42 GB   |    Скачан:  39 раз
Сидов:  1  [  0 KB/s  ]  
 
 
 
Автор Сообщение

сашок33

[] 

Второе дыхание





Год выпуска: 2016
Производство: Россия, "Star Media"
Жанр: мелодрама
Продолжительность: ~00:48:00
Субтитры: украинские,вшитые



Режиссёр: Олег Туранский



В ролях: Олеся Фаттахова, Сергей Радченко , Валентин Томусяк, Людмила Загорская, Дарья Трегубова, Игорь Портянко, Михаил Кукуюк, Виктория Билан, Дмитрий Оськин, Олег Масленников, Инна Мирошниченко, Олег Драч

Описание: Елена Ускова переживает сложный период в своей жизни. Любимый отец смертельно болен, отношения с мужем Сергеем охладевают. Когда отец все же умирает, Лена безутешна. Во многом справиться с горем ей помогает сводная сестра Наташа, с которой они не виделись много лет. Постепенно жизнь налаживается...
Однако вскоре Лену ждет новый удар - она понимает, что муж ей изменяет. Сергей уверяет, что Лена заблуждается. Лене начинает казаться, что она сходит с ума, дело доходит до нервного срыва и Сергей вызывает жене психиатра, который подтверждает - бедная женщина на грани сумасшествия, из-за перенесенного стресса.
Однажды Лена просыпается от запаха дыма. В сгоревшей во дворе дома бане находят тело ее мертвого мужа. Лене предъявляют обвинение в убийстве Сергея, и все улики свидетельствуют "за". Лена оказывается в тюрьме, и лишь она одна точно знает правду - ее подставили, она не убивала своего мужа. Теперь ей предстоит убедить в этом суд и свое окружение, любой ценой...








Релиз от:




Качество: SATRip-AVC
Формат: MKV
Видео кодек: H.264
Аудио кодек: AC3
Видео: MPEG4 Video (H264), 720x400, 25fps,1700 Kbps,bit/pixel 0.236
Аудио: AC3 48000Hz, stereo, 192kbps,2 ch



Общее
Уникальный идентификатор : 222627642268972416093916121506583000072 (0xA77C86368534EB4B90EE5D4A4A4DB408)
Полное имя : K:\Второе дыхание\01 серия_Второе дыхание_rip by_Aleksan55.mkv
Формат : Matroska
Версия формата : Version 2
Размер файла : 659 Мбайт
Продолжительность : 48 м.
Общий поток : 1894 Кбит/сек
Дата кодирования : UTC 2016-11-20 04:20:27
Программа кодирования : mkvmerge v7.8.0 ('River Man') 32bit built on Apr 3 2015 12:11:22
Библиотека кодирования : libebml v1.3.1 + libmatroska v1.4.2

Видео
Идентификатор : 1
Формат : AVC
Формат/Информация : Advanced Video Codec
Профиль формата : High@L3.1
Параметр CABAC формата : Да
Параметр ReFrames формата : 12 кадров
Идентификатор кодека : V_MPEG4/ISO/AVC
Продолжительность : 48 м.
Битрейт : 1700 Кбит/сек
Ширина : 720 пикселей
Высота : 400 пикселей
Соотношение сторон : 16:9
Режим частоты кадров : Постоянный
Частота кадров : 25,000 кадров/сек
Цветовое пространство : YUV
Субдискретизация насыщенности : 4:2:0
Битовая глубина : 8 бит
Тип развёртки : Прогрессивная
Бит/(Пиксели*Кадры) : 0.236
Размер потока : 579 Мбайт (88%)
Библиотека кодирования : x264 core 148 r2638 7599210
Настройки программы : cabac=1 / ref=12 / deblock=1:-1:-1 / analyse=0x3:0x133 / me=umh / subme=9 / psy=1 / psy_rd=1.00:0.15 / mixed_ref=0 / me_range=32 / chroma_me=1 / trellis=2 / 8x8dct=1 / cqm=0 / deadzone=21,11 / fast_pskip=0 / chroma_qp_offset=-3 / threads=2 / lookahead_threads=3 / sliced_threads=0 / nr=0 / decimate=0 / interlaced=0 / bluray_compat=0 / constrained_intra=0 / bframes=12 / b_pyramid=2 / b_adapt=1 / b_bias=0 / direct=3 / weightb=1 / open_gop=0 / weightp=2 / keyint=250 / keyint_min=25 / scenecut=40 / intra_refresh=0 / rc_lookahead=60 / rc=2pass / mbtree=1 / bitrate=1700 / ratetol=1.0 / qcomp=0.80 / qpmin=0 / qpmax=40 / qpstep=4 / cplxblur=20.0 / qblur=0.5 / ip_ratio=1.40 / aq=1:1.20
Default : Да
Forced : Нет
Цветовой диапазон : Limited
Основные цвета : BT.601 PAL
Характеристики трансфера : BT.470 System B, BT.470 System G
Коэффициенты матрицы : BT.601

Аудио
Идентификатор : 2
Формат : AC-3
Формат/Информация : Audio Coding 3
Расширение режима : CM (complete main)
Параметр Endianness формата : Big
Идентификатор кодека : A_AC3
Продолжительность : 48 м.
Вид битрейта : Постоянный
Битрейт : 192 Кбит/сек
Каналы : 1 канал
Расположение каналов : Front: C
Частота : 48,0 КГц
Метод сжатия : С потерями
Размер потока : 66,8 Мбайт (10%)
Default : Да
Forced : Нет
Рекламы нет.



Скачать Второе.дыхание.(01-04.из.04).(Олег.Туранский).[2016.мелодрама.SATRip-AVC].torrent без регистрации
Золото ЗОЛОТАЯ РАЗДАЧА! СКАЧАННОЕ НЕ ЗАСЧИТЫВАЕТСЯ! Золото
Дата: Зарегистрирован   [ Тип: внутренний ] Как тут cкачать?
MAGNET ссылка
MAGNET ссылка


Скачать .torrent

13 KB

Статус: проверено DHT
Скачан: торрент - 39 раз, раздача полностью - 16 раз
Размер: 2,42 GB
Оценка:  - (Голосов: 0)
Поблагодарили: 1
Поделиться ссылкой на эту раздачу с друзьями:
В контактеFacebookОдноклассникиTwitterLivejournalМой МирLiveinternet
 

 
Показать сообщения:    


Вы не можете начинать темы
Вы не можете отвечать на сообщения
Вы не можете редактировать свои сообщения
Вы не можете удалять свои сообщения
Вы не можете голосовать в опросах
Вы не можете прикреплять файлы к сообщениям
Вы можете скачивать файлы