Loading...
Error

Скачать Лейтенант (Евгений Эпштейн) [2016, драма, WEB-DLRip-AVC] [лицензия iTunes] торрент без регистрации

Статистика раздачи
Размер:  1,55 GB   |    Скачан:  51 раз

Полного источника не было: 19 минут

 
 
 
Автор Сообщение

МихаНЕзатор

[] 

Оригинальное название: Лейтенант
Год выпуска: 2016
Жанр: драма
Выпущено: Россия, Кинокомпания СТВ
Режиссер: Евгений Эпштейн

В ролях: Антон Левин, Виктор Забровский, Степан Румянцев, Сергей Бойков, Сергей Остапюк, Вячеслав Дергачев, Евгений Мендус, Александр Муштуков, Ярослав Лозяк

О фильме: Ноябрь, 1941 год. Группа солдат во главе с молодым лейтенантом Иваном Горчаковым отправляется на задание - взорвать артиллерийскую немецкую базу и остановить наступление немцев на Москву. За 48 часов им предстоит преодолеть 60 километров по открытому пространству. Сначала пешком, потом ползком. Во время этого сложнейшего пути важно не только выстоять, но и остаться людьми.

Релиз от: Автор релиза:

Качество: WEB-DLRip (AVC)
Видео: MPEG-4 AVC, 2240 Кбит/с, 1024x576
Аудио: AC3, 6 ch, 384 Кбит/с
Продолжительность: 01:24:35
Язык: Русский

АНОНСЫ ПОПУЛЯРНЫХ РАЗДАЧ
General
Unique ID : 216009329470713555705947057034541937817 (0xA281E232EB519CC08FDBDCA2262C3499)
Complete name : D:\Lejtenant.2016.WEB-DLRip.AVC.ExKinoRay.mkv
Format : Matroska
Format version : Version 2
File size : 1.55 GiB
Duration : 1 h 24 min
Overall bit rate : 2 625 kb/s
Movie name : Лейтенант 2016 from ExKinoRay
Encoded date : UTC 2016-12-06 01:48:05
Writing application : mkvmerge v7.6.0 ('Garden of Dreams') 32bit built on Feb 11 2015 00:18:47
Writing library : libebml v1.3.1 + libmatroska v1.4.2

Video
ID : 1
Format : AVC
Format/Info : Advanced Video Codec
Format profile : High@L4.1
Format settings, CABAC : Yes
Format settings, ReFrames : 12 frames
Codec ID : V_MPEG4/ISO/AVC
Duration : 1 h 24 min
Bit rate : 2 240 kb/s
Width : 1 024 pixels
Height : 576 pixels
Display aspect ratio : 16:9
Frame rate mode : Constant
Frame rate : 24.000 FPS
Color space : YUV
Chroma subsampling : 4:2:0
Bit depth : 8 bits
Scan type : Progressive
Bits/(Pixel*Frame) : 0.158
Stream size : 1.29 GiB (83%)
Title : Enigma
Writing library : x264 core 144 r2525 40bb568
Encoding settings : cabac=1 / ref=12 / deblock=1:-2:-2 / analyse=0x3:0x113 / me=umh / subme=10 / psy=1 / psy_rd=1.00:0.05 / mixed_ref=1 / me_range=32 / chroma_me=1 / trellis=2 / 8x8dct=1 / cqm=0 / deadzone=21,11 / fast_pskip=1 / chroma_qp_offset=-3 / threads=12 / lookahead_threads=2 / sliced_threads=0 / nr=0 / decimate=1 / interlaced=0 / bluray_compat=0 / constrained_intra=0 / bframes=9 / b_pyramid=2 / b_adapt=2 / b_bias=0 / direct=3 / weightb=1 / open_gop=0 / weightp=2 / keyint=240 / keyint_min=24 / scenecut=40 / intra_refresh=0 / rc_lookahead=40 / rc=2pass / mbtree=0 / bitrate=2240 / ratetol=1.0 / qcomp=0.63 / qpmin=0 / qpmax=51 / qpstep=4 / cplxblur=20.0 / qblur=0.5 / vbv_maxrate=50000 / vbv_bufsize=62500 / nal_hrd=none / filler=0 / ip_ratio=1.40 / pb_ratio=1.30 / aq=1:1.00
Language : English
Default : Yes
Forced : No
Color range : Limited
Color primaries : BT.709
Transfer characteristics : BT.709
Matrix coefficients : BT.709

Audio
ID : 2
Format : AC-3
Format/Info : Audio Coding 3
Mode extension : CM (complete main)
Format settings, Endianness : Big
Codec ID : A_AC3
Duration : 1 h 24 min
Bit rate mode : Constant
Bit rate : 384 kb/s
Channel(s) : 6 channels
Channel positions : Front: L C R, Side: L R, LFE
Sampling rate : 48.0 kHz
Frame rate : 31.250 FPS (1536 spf)
Compression mode : Lossy
Stream size : 232 MiB (15%)
Title : iTunes
Language : Russian
Default : Yes
Forced : No

Menu
00:00:00.000 : en:Глава 1
00:07:12.291 : en:Глава 2
00:13:40.707 : en:Глава 3
00:19:00.707 : en:Глава 4
00:24:20.748 : en:Глава 5
00:30:43.789 : en:Глава 6
00:37:16.205 : en:Глава 7
00:43:40.205 : en:Глава 8
00:50:52.705 : en:Глава 9
00:58:19.413 : en:Глава 10
01:04:29.079 : en:Глава 11
01:10:08.704 : en:Глава 12
01:15:44.870 : en:Глава 13



Скачать Лейтенант.(Евгений.Эпштейн).[2016.драма.WEB-DLRip-AVC].[лицензия.iTunes].torrent без регистрации
Золото ЗОЛОТАЯ РАЗДАЧА! СКАЧАННОЕ НЕ ЗАСЧИТЫВАЕТСЯ! Золото
Дата: Зарегистрирован   [ Тип: внутренний ] Как тут cкачать?
MAGNET ссылка
MAGNET ссылка


Скачать .torrent

16 KB

Статус: проверено DHT
Скачан: торрент - 51 раз, раздача полностью - 66 раз
Размер: 1,55 GB
Оценка:  - (Голосов: 0)
Поблагодарили: 4
Поделиться ссылкой на эту раздачу с друзьями:
В контактеFacebookОдноклассникиTwitterLivejournalМой МирLiveinternet
 

 
Показать сообщения:    


Вы не можете начинать темы
Вы не можете отвечать на сообщения
Вы не можете редактировать свои сообщения
Вы не можете удалять свои сообщения
Вы не можете голосовать в опросах
Вы не можете прикреплять файлы к сообщениям
Вы можете скачивать файлы