Loading...
Error

Скачать Плохой Санта 2 / Bad Santa 2 (Марк Уотерс) [2016, драма, комедия, криминал, WEB-DLRip-AVC] [Dub (лицензия iTunes)] торрент без регистрации

Статистика раздачи
Размер:  1,46 GB   |    Скачан:  114 раз
Сидов:  1  [  0 KB/s  ]  
 
 
 
Автор Сообщение

МихаНЕзатор

[] 

Информация о фильме
Название: Плохой Санта 2
Оригинальное название: Bad Santa 2
Год выпуска: 2016
Жанр: драма, комедия, криминал
Режиссер: Марк Уотерс

В ролях: Билли Боб Торнтон, Кэти Бэйтс, Тони Кокс, Кристина Хендрикс, Бретт Келли, Райан Хансен, Дженни Зигрино, Джефф Скоурон, Кристина Розато, Майк Старр

О фильме: Продолжение новогодних приключений проходимца Вилли, который в канун Рождества, как всегда, переодевается в Санта-Клауса. Ограбить очередной супермаркет в этом наряде не представляет никаких проблем. Но в Рождество случаются всякие чудеса. Каким оно будет для Вилли на этот раз?

Релиз от:

Страна: США
Студия: Broad Green Pictures, Ingenious Media, Miramax Films
Продолжительность: 01:28:28
Перевод: Дублированный |iTunes Russia

Файл
Кодек: x264
Качество: WEB-DLRip-AVC Локализованный видеоряд
Видео: 720x388 (1.85:1), 25 fps, MPEG-4 AVC ~1975 kbps avg, 0.283 bit/pixel
Аудио: AC3, 48.0 kHz, 6 ch, ~384.00 kbps avg | русский | Профессиональный (полное дублирование)[iTunes]

АНОНСЫ ПОПУЛЯРНЫХ РАЗДАЧ
Общее
Уникальный идентификатор : 173881992789256592230216842284445807880 (0x82D07423BBDE68BEBA4F402DE6853508)
Полное имя : D:ВидеоBad.Santa.2.2016.WEB-DLRip-AVC 1.46 .OlLanDGroup.mkv
Формат : Matroska
Версия формата : Version 4 / Version 2
Размер файла : 1,46 Гбайт
Продолжительность : 1 ч. 28 м.
Общий поток : 2358 Кбит/сек
Название фильма : Bad Santa 2 (2016) - Release for OlLanDGroup
Дата кодирования : UTC 2016-12-24 10:37:47
Программа кодирования : mkvmerge v9.6.0 ('Slave To Your Mind') 64bit
Библиотека кодирования : libebml v1.3.4 + libmatroska v1.4.5
DURATION : 01:28:28.800000000
NUMBER_OF_FRAMES : 165900
NUMBER_OF_BYTES : 254822400
_STATISTICS_WRITING_APP : mkvmerge v9.6.0 ('Slave To Your Mind') 64bit
_STATISTICS_WRITING_DATE_UTC : 2016-12-24 10:37:47
_STATISTICS_TAGS : BPS DURATION NUMBER_OF_FRAMES NUMBER_OF_BYTES

Видео
Идентификатор : 1
Формат : AVC
Формат/Информация : Advanced Video Codec
Профиль формата : High@L4.1
Параметр CABAC формата : Да
Параметр ReFrames формата : 10 кадров
Идентификатор кодека : V_MPEG4/ISO/AVC
Продолжительность : 1 ч. 28 м.
Битрейт : 1975 Кбит/сек
Ширина : 720 пикселей
Высота : 388 пикселей
Соотношение сторон : 1,85:1
Режим частоты кадров : Постоянный
Частота кадров : 25,000 кадров/сек
Цветовое пространство : YUV
Субдискретизация насыщенности : 4:2:0
Битовая глубина : 8 бит
Тип развёртки : Прогрессивная
Бит/(Пиксели*Кадры) : 0.283
Размер потока : 1,19 Гбайт (82%)
Заголовок : by Vovan366
Библиотека кодирования : x264 core 146 r2538 121396c
Настройки программы : cabac=1 / ref=10 / deblock=1:-3:-3 / analyse=0x3:0x113 / me=umh / subme=11 / psy=1 / psy_rd=1.00:0.05 / mixed_ref=1 / me_range=48 / chroma_me=1 / trellis=2 / 8x8dct=1 / cqm=0 / deadzone=21,11 / fast_pskip=0 / chroma_qp_offset=-3 / threads=6 / lookahead_threads=1 / sliced_threads=0 / nr=0 / decimate=0 / interlaced=0 / bluray_compat=0 / constrained_intra=0 / bframes=10 / b_pyramid=2 / b_adapt=2 / b_bias=0 / direct=3 / weightb=1 / open_gop=0 / weightp=2 / keyint=250 / keyint_min=25 / scenecut=40 / intra_refresh=0 / rc_lookahead=40 / rc=2pass / mbtree=0 / bitrate=1975 / ratetol=1.0 / qcomp=0.60 / qpmin=0 / qpmax=69 / qpstep=4 / cplxblur=20.0 / qblur=0.5 / vbv_maxrate=14000 / vbv_bufsize=14000 / nal_hrd=none / filler=0 / ip_ratio=1.40 / pb_ratio=1.30 / aq=1:1.00
Язык : English
Default : Да
Forced : Нет
Основные цвета : BT.709
Характеристики трансфера : BT.709
Коэффициенты матрицы : BT.709

Аудио
Идентификатор : 2
Формат : AC-3
Формат/Информация : Audio Coding 3
Расширение режима : CM (complete main)
Параметр Endianness формата : Big
Идентификатор кодека : A_AC3
Продолжительность : 1 ч. 28 м.
Вид битрейта : Постоянный
Битрейт : 384 Кбит/сек
Каналы : 6 каналов
Расположение каналов : Front: L C R, Side: L R, LFE
Частота : 48,0 КГц
Битовая глубина : 16 бит
Метод сжатия : С потерями
Размер потока : 243 Мбайт (16%)
Заголовок : AC3 5.1 @ 384 kbps - DUB, iTunes
Язык : Russian
Default : Да
Forced : Да

Меню
00:00:00.000 : en:1
00:07:29.200 : en:2
00:14:11.040 : en:3
00:21:25.560 : en:4
00:27:56.360 : en:5
00:35:03.440 : en:6
00:41:13.440 : en:7
00:47:36.440 : en:8
00:53:49.560 : en:9
01:00:49.920 : en:10
01:07:50.200 : en:11
01:14:27.920 : en:12



Скачать Плохой.Санта.2.Bad.Santa.2.(Марк.Уотерс).[2016.драма.комедия.криминал.WEB-DLRip-AVC].[Dub.(лицензия.iTunes)].torrent без регистрации
Золото ЗОЛОТАЯ РАЗДАЧА! СКАЧАННОЕ НЕ ЗАСЧИТЫВАЕТСЯ! Золото
Дата: Зарегистрирован   [ Тип: внутренний ] Как тут cкачать?
MAGNET ссылка
MAGNET ссылка


Скачать .torrent

15 KB

Статус: проверено DHT
Скачан: торрент - 114 раз, раздача полностью - 231 раз
Размер: 1,46 GB
Оценка:  - (Голосов: 0)
Поблагодарили: 5
Поделиться ссылкой на эту раздачу с друзьями:
В контактеFacebookОдноклассникиTwitterLivejournalМой МирLiveinternet
 

 
Показать сообщения:    


Вы не можете начинать темы
Вы не можете отвечать на сообщения
Вы не можете редактировать свои сообщения
Вы не можете удалять свои сообщения
Вы не можете голосовать в опросах
Вы не можете прикреплять файлы к сообщениям
Вы можете скачивать файлы