Loading...
Error

Скачать Джентльменское соглашение / Gentleman's Agreement (Элиа Казан) [1947, драма, мелодрама, BDRip] [720p] [DVO]x2+[Sub] торрент без регистрации

Статистика раздачи
Размер:  8,03 GB   |    Скачан:  5 раз
Сидов:  1  [  0 KB/s  ]  
 
 
 
Автор Сообщение

Marsianka

[] 

Информация о фильме
Название: Джентльменское соглашение
Оригинальное название: Gentleman's Agreement
Год выхода: 1947
Жанр: драма, мелодрама
Режиссер: Элиа Казан
В ролях: Грегори Пек, Дороти МакГуайр, Джон Гарфилд, Селест Холм, Энн Ревер, Джун Хэвок, Альберт Деккер, Джейн Виатт, Дин Стокуэлл, Николас Джой

О фильме:
В центре повествования молодой независимый литератор, пытающийся привлечь внимание общества к социальным проблемам и выдающий себя за еврея, с тем чтобы написать ряд статей об антисемитизме и взглянуть на трагедию народа без Родины глазами еврея.



Страна: США / 20th Century Fox Film Corporation
Продолжительность: 01:58:24
Перевод #1: Профессиональный (двухголосый закадровый) New Dream
Перевод #2: Профессиональный (двухголосый закадровый) Светла

DON

Файл
Формат: MKV
Видео: 986x720 at 23.976 fps, MPEG-4 AVC, ~9707 kbps avg
Aудио#1: Russian: 48 kHz, AC3, 2/0 (L,R) ch, ~192.00 kbps avg
Aудио#2: Russian: 48 kHz, AC3, 2/0 (L,R) ch, ~192.00 kbps avg
Aудио#3: English: 48 kHz, FLAC 2/0 (L,R) ch, ~214.00 kbps avg
Aудио#4: English: 48 kHz, AC3 2/0 (L,R) ch, ~224.00 kbps avg |Commentary by J. Havoc, R. Schickel and C. Holm|
Субтитры: Английские
Работа со звуком - ghoulie
General
Unique ID : 223167747674742343245615573428967871305 (0xA7E48B772638E3978A5D68EC5FE09349)
Complete name : Gentleman's.Agreement.1947.720p.2xRus.Eng.BluRay.Sub.Eng.FLAC.2.0.x264-DON.mkv
Format : Matroska
Format version : Version 4 / Version 2
File size : 8.03 GiB
Duration : 1h 58mn
Overall bit rate mode : Variable
Overall bit rate : 9 707 Kbps
Encoded date : UTC 2013-01-30 10:27:07
Writing application : mkvmerge v6.0.0 ('Coming Up For Air') built on Jan 20 2013 09:52:00
Writing library : libebml v1.3.0 + libmatroska v1.4.0

Video
ID : 1
Format : AVC
Format/Info : Advanced Video Codec
Format profile : High@L4.1
Format settings, CABAC : Yes
Format settings, ReFrames : 11 frames
Codec ID : V_MPEG4/ISO/AVC
Duration : 1h 58mn
Width : 986 pixels
Height : 720 pixels
Display aspect ratio : 4:3
Frame rate mode : Constant
Frame rate : 23.976 (24000/1001) fps
Color space : YUV
Chroma subsampling : 4:2:0
Bit depth : 8 bits
Scan type : Progressive
Title : Gentleman's.Agreement.1947.720p.BluRay.FLAC.2.0.x264-DON
Writing library : x264 core 120 r2164+656 2ff844c
Encoding settings : cabac=1 / ref=11 / deblock=1:-3:-3 / analyse=0x3:0x133 / me=umh / subme=10 / psy=1 / fade_compensate=0.00 / psy_rd=0.80:0.03 / mixed_ref=1 / me_range=32 / chroma_me=1 / trellis=2 / 8x8dct=1 / cqm=0 / deadzone=21,11 / fast_pskip=0 / chroma_qp_offset=-3 / threads=3 / sliced_threads=0 / nr=0 / decimate=0 / interlaced=0 / bluray_compat=0 / constrained_intra=0 / fgo=0 / bframes=7 / b_pyramid=2 / b_adapt=2 / b_bias=0 / direct=3 / weightb=1 / open_gop=0 / weightp=2 / keyint=250 / keyint_min=23 / scenecut=40 / intra_refresh=0 / rc=crf / mbtree=0 / crf=16.7 / qcomp=0.65 / qpmin=0 / qpmax=69 / qpstep=4 / ip_ratio=1.40 / pb_ratio=1.30 / aq=3:0.95
Language : English
Default : Yes
Forced : No

Audio #1
ID : 2
Format : AC-3
Format/Info : Audio Coding 3
Mode extension : CM (complete main)
Format settings, Endianness : Big
Codec ID : A_AC3
Duration : 1h 58mn
Bit rate mode : Constant
Bit rate : 192 Kbps
Channel(s) : 2 channels
Channel positions : Front: L R
Sampling rate : 48.0 KHz
Frame rate : 31.250 fps (1536 spf)
Compression mode : Lossy
Stream size : 163 MiB (2%)
Title : New Dream
Language : Russian
Default : Yes
Forced : No

Audio #2
ID : 3
Format : AC-3
Format/Info : Audio Coding 3
Mode extension : CM (complete main)
Format settings, Endianness : Big
Codec ID : A_AC3
Duration : 1h 58mn
Bit rate mode : Constant
Bit rate : 192 Kbps
Channel(s) : 2 channels
Channel positions : Front: L R
Sampling rate : 48.0 KHz
Frame rate : 31.250 fps (1536 spf)
Compression mode : Lossy
Stream size : 163 MiB (2%)
Title : Svetla
Language : Russian
Default : No
Forced : No

Audio #3
ID : 4
Format : FLAC
Format/Info : Free Lossless Audio Codec
Codec ID : A_FLAC
Duration : 1h 58mn
Bit rate mode : Variable
Channel(s) : 2 channels
Channel positions : Front: L R
Sampling rate : 48.0 KHz
Bit depth : 16 bits
Title : Dialog
Writing library : libFLAC 1.2.1 (UTC 2007-09-17)
Language : English
Default : No
Forced : No

Audio #4
ID : 5
Format : AC-3
Format/Info : Audio Coding 3
Mode extension : CM (complete main)
Format settings, Endianness : Big
Codec ID : A_AC3
Duration : 1h 58mn
Bit rate mode : Constant
Bit rate : 224 Kbps
Channel(s) : 2 channels
Channel positions : Front: L R
Sampling rate : 48.0 KHz
Frame rate : 31.250 fps (1536 spf)
Compression mode : Lossy
Stream size : 190 MiB (2%)
Title : Commentary by J. Havoc, R. Schickel and C. Holm
Language : English
Default : No
Forced : No

Text
ID : 6
Format : UTF-8
Codec ID : S_TEXT/UTF8
Codec ID/Info : UTF-8 Plain Text
Title : Text
Language : English
Default : No
Forced : No

Menu
00:00:00.000 : :00:00:00.000
00:01:12.823 : :00:01:12.823
00:06:34.811 : :00:06:34.811
00:18:55.760 : :00:18:55.760
00:25:09.508 : :00:25:09.508
00:33:54.866 : :00:33:54.866
00:41:53.261 : :00:41:53.261
00:48:08.511 : :00:48:08.511
00:54:47.117 : :00:54:47.117
01:04:16.269 : :01:04:16.269
01:23:22.414 : :01:23:22.414
01:39:44.604 : :01:39:44.604
01:47:59.098 : :01:47:59.098



Скачать Джентльменское.соглашение.Gentleman's.Agreement.(Элиа.Казан).[1947.драма.мелодрама.BDRip].[720p].[DVO]x2+[Sub].torrent без регистрации
Золото ЗОЛОТАЯ РАЗДАЧА! СКАЧАННОЕ НЕ ЗАСЧИТЫВАЕТСЯ! Золото
Дата: Зарегистрирован   [ Тип: внутренний ] Как тут cкачать?
MAGNET ссылка
MAGNET ссылка


Скачать .torrent

41 KB

Статус: проверено DHT
Скачан: торрент - 5 раз, раздача полностью - 0 раз
Размер: 8,03 GB
Оценка:  - (Голосов: 0)
Поблагодарили: 0
Поделиться ссылкой на эту раздачу с друзьями:
В контактеFacebookОдноклассникиTwitterLivejournalМой МирLiveinternet
 

 
Показать сообщения:    


Вы не можете начинать темы
Вы не можете отвечать на сообщения
Вы не можете редактировать свои сообщения
Вы не можете удалять свои сообщения
Вы не можете голосовать в опросах
Вы не можете прикреплять файлы к сообщениям
Вы можете скачивать файлы