Loading...
Error

Скачать Честная куртизанка / Dangerous Beauty (Маршалл Херсковиц) [1998, драма, мелодрама, биография, HDTVRip] [1080p] [Dub]+[DVO]+[Eng]+[Sub]x2 торрент без регистрации

Статистика раздачи
Размер:  7,01 GB   |    Скачан:  15 раз
Сидов:  1  [  0 KB/s  ]  
 
 
 
Автор Сообщение

Marsianka

[] 

Название: Честная куртизанка
Оригинальное название: Dangerous Beauty
Год выхода: 1998

Страна: США
Студия: Regency Enterprises, Arnon Milchan Productions, The Bedford Falls Company
Продолжительность: 01:51:39
Жанр: драма, мелодрама, биография

Режиссер: Маршалл Херсковиц
В ролях: Катрин МакКормак, Руфус Сьюэлл, Оливер Платт, Жаклин Биссет, Фред Уорд, Наоми Уоттс, Мойра Келли, Джоанна Кэссиди, Дэниэл Лапэйн, Ерун Краббе, ...

Перевод:
- Профессиональный (дублированный) Невафильм
- Профессиональный (двуголосый, закадровый) R5 Гемини-Фильм
- Субтитры

О фильме: Венеция, 1583 год. Юная, красивая, умная, но бедная Вероника Франко влюбляется в аристократа Марко, брата своей подруги, только что вернувшегося из Рима. Он тоже неравнодушен к девушке, но его отец считает, что их брак невозможен, так как у Вероники нет приданого. Мать Вероники, в молодости бывшая куртизанкой, пытается убедить дочь в необходимости обратиться к древнейшей профессии, потому что семье угрожает бедность…



Кодек: x264
Качество: HDTVRip 1080p
Видео: 1920x800, 8000 kbps, 23,976 fps
Аудио #1: AC-3, 2 ch, 224 kbps (Rus) - Dub Невафильм (VHS Лазер Видео)
Аудио #2: AC-3, 6 ch, 384 kbps (Rus) - DVO R5 Гемини-Фильм
Аудио #3: AC-3, 6 ch, 384 kbps (Eng)
Субтитры: русские, английские
За исходник спасибо - Shyrik.75

Дубляж взят с раздачи edich2. Это оцифровка alenavova лицензии VHS от Лазер Видео из домашней коллекции.

x264 [info]: frame I:1011 Avg QP:13.42 size:141089
x264 [info]: frame P:35090 Avg QP:15.88 size: 77008
x264 [info]: frame B:124523 Avg QP:17.76 size: 30943
x264 [info]: consecutive B-frames: 1.0% 1.6% 6.3% 30.6% 37.2% 13.6% 2.6% 4.1% 1.4% 1.3% 0.1%

Общее
Уникальный идентификатор : 189390765367059251552842901222100661722 (0x8E7B55A9BA32CF9A9A5B11B63D8D75DA)
Полное имя : Честная куртизанка (Dangerous Beauty) 1998 HDTVRip 1080p.mkv
Формат : Matroska
Версия формата : Version 2
Размер файла : 7,01 Гбайт
Продолжительность : 1 ч. 51 м.
Общий поток : 8993 Кбит/сек
Дата кодирования : UTC 2016-12-27 20:39:28
Программа кодирования : mkvmerge v4.0.0 ('The Stars were mine') сборка от Jun 6 2010 16:18:42
Библиотека кодирования : libebml v1.0.0 + libmatroska v1.0.0

Видео
Идентификатор : 1
Формат : AVC
Формат/Информация : Advanced Video Codec
Профиль формата : High@L4.1
Параметр CABAC формата : Да
Параметр ReFrames формата : 5 кадров
Идентификатор кодека : V_MPEG4/ISO/AVC
Продолжительность : 1 ч. 51 м.
Битрейт : 8000 Кбит/сек
Ширина : 1920 пикселей
Высота : 800 пикселей
Соотношение сторон : 2,40:1
Режим частоты кадров : Постоянный
Частота кадров : 23,976 (24000/1001) кадра/сек
Цветовое пространство : YUV
Субдискретизация насыщенности : 4:2:0
Битовая глубина : 8 бит
Тип развёртки : Прогрессивная
Бит/(Пиксели*Кадры) : 0.217
Размер потока : 6,10 Гбайт (87%)
Библиотека кодирования : x264 core 146 r2538 121396c
Настройки программы : cabac=1 / ref=5 / deblock=1:-3:-3 / analyse=0x3:0x133 / me=umh / subme=11 / psy=1 / psy_rd=1.00:0.00 / mixed_ref=1 / me_range=32 / chroma_me=1 / trellis=2 / 8x8dct=1 / cqm=0 / deadzone=21,11 / fast_pskip=0 / chroma_qp_offset=-2 / threads=12 / lookahead_threads=2 / sliced_threads=0 / nr=0 / decimate=0 / interlaced=0 / bluray_compat=0 / constrained_intra=0 / bframes=10 / b_pyramid=2 / b_adapt=2 / b_bias=0 / direct=3 / weightb=1 / open_gop=0 / weightp=2 / keyint=240 / keyint_min=23 / scenecut=40 / intra_refresh=0 / rc=2pass / mbtree=0 / bitrate=8000 / ratetol=1.0 / qcomp=0.60 / qpmin=0 / qpmax=69 / qpstep=4 / cplxblur=20.0 / qblur=0.5 / ip_ratio=1.40 / pb_ratio=1.30 / aq=1:0.80
Язык : English
Default : Нет
Forced : Нет

Аудио #1
Идентификатор : 2
Формат : AC-3
Формат/Информация : Audio Coding 3
Расширение режима : CM (complete main)
Параметр Endianness формата : Big
Идентификатор кодека : A_AC3
Продолжительность : 1 ч. 51 м.
Вид битрейта : Постоянный
Битрейт : 224 Кбит/сек
Каналы : 2 канала
Расположение каналов : Front: L R
Частота : 48,0 КГц
Частота кадров : 31,250 кадров/сек (1536 spf)
Метод сжатия : С потерями
Размер потока : 179 Мбайт (2%)
Заголовок : Dub Невафильм (VHS Лазер Видео)
Язык : Russian
Default : Нет
Forced : Нет

Аудио #2
Идентификатор : 3
Формат : AC-3
Формат/Информация : Audio Coding 3
Расширение режима : CM (complete main)
Параметр Endianness формата : Big
Идентификатор кодека : A_AC3
Продолжительность : 1 ч. 51 м.
Вид битрейта : Постоянный
Битрейт : 384 Кбит/сек
Каналы : 6 каналов
Расположение каналов : Front: L C R, Side: L R, LFE
Частота : 48,0 КГц
Частота кадров : 31,250 кадров/сек (1536 spf)
Метод сжатия : С потерями
Размер потока : 307 Мбайт (4%)
Заголовок : DVO R5 Гемини-Фильм
Язык : Russian
Default : Нет
Forced : Нет

Аудио #3
Идентификатор : 4
Формат : AC-3
Формат/Информация : Audio Coding 3
Расширение режима : CM (complete main)
Параметр Endianness формата : Big
Идентификатор кодека : A_AC3
Продолжительность : 1 ч. 51 м.
Вид битрейта : Постоянный
Битрейт : 384 Кбит/сек
Каналы : 6 каналов
Расположение каналов : Front: L C R, Side: L R, LFE
Частота : 48,0 КГц
Частота кадров : 31,250 кадров/сек (1536 spf)
Метод сжатия : С потерями
Размер потока : 307 Мбайт (4%)
Язык : English
Default : Нет
Forced : Нет

Текст #1
Идентификатор : 5
Формат : UTF-8
Идентификатор кодека : S_TEXT/UTF8
Идентификатор кодека/Информация : UTF-8 Plain Text
Язык : Russian
Default : Нет
Forced : Нет

Текст #2
Идентификатор : 6
Формат : UTF-8
Идентификатор кодека : S_TEXT/UTF8
Идентификатор кодека/Информация : UTF-8 Plain Text
Язык : English
Default : Нет
Forced : Нет



Скачать Честная.куртизанка.Dangerous.Beauty.(Маршалл.Херсковиц).[1998.драма.мелодрама.биография.HDTVRip].[1080p].[Dub]+[DVO]+[Eng]+[Sub]x2.torrent без регистрации
Золото ЗОЛОТАЯ РАЗДАЧА! СКАЧАННОЕ НЕ ЗАСЧИТЫВАЕТСЯ! Золото
Дата: Зарегистрирован   [ Тип: внутренний ] Как тут cкачать?
MAGNET ссылка
MAGNET ссылка


Скачать .torrent

36 KB

Статус: проверено DHT
Скачан: торрент - 15 раз, раздача полностью - 21 раз
Размер: 7,01 GB
Оценка:  - (Голосов: 0)
Поблагодарили: 0
Поделиться ссылкой на эту раздачу с друзьями:
В контактеFacebookОдноклассникиTwitterLivejournalМой МирLiveinternet
 

 
Показать сообщения:    


Вы не можете начинать темы
Вы не можете отвечать на сообщения
Вы не можете редактировать свои сообщения
Вы не можете удалять свои сообщения
Вы не можете голосовать в опросах
Вы не можете прикреплять файлы к сообщениям
Вы можете скачивать файлы