Loading...
Error

Скачать Зубастики 2: Основное блюдо / Critters 2 (Мик Гэррис) [1988, фантастика, ужасы, комедия, WEBRip] [1080p] [DVO]x2+[AVO]+[Оригинал] торрент без регистрации

Статистика раздачи
Размер:  8,64 GB   |    Скачан:  16 раз
Сидов:  1  [  0 KB/s  ]  
 
 
 
Автор Сообщение

Marsianka

[] 

Информация о фильме
Название: Зубастики 2: Основное блюдо
Оригинальное название: Critters 2
Год выхода: 1988
Жанр: фантастика, ужасы, комедия
Режиссер: Мик Гэррис
В ролях: Терренс Манн, Дон Кит Оппер, Синтия Гэррис, Скотт Граймз, Аль Стивенсон, Том Ходжис, Дуглас Роу, Лиан Александра Кёртис, Линдси Паркер, Херта Уэр

О фильме:
Прошло 2 года с тех пор, как гадкие зубастые существа впервые терроризировали городок Гроверз Бенд и разгромили ферму Браунов. Пришло время, и из огромных зеленых яиц стали вылупляться Зубастики, как раз ко дню Святой Пасхи. Сорвав церковную службу, они вновь начинают пожирать все на своем пути. К счастью, в город приезжает храбрый юноша Брэд Браун, который объединяется со своими старыми друзьями космическими охотниками и вступает в бой с Зубастиками.



Страна: США
Продолжительность: 01:25:46

1. Профессиональный двухголосый закадровый (Инис)
2. Профессиональный двухголосый закадровый (TV6)
3. Авторский одноголосый закадровый (Гаврилов)
4. Английский (Оригинал)
Файл
Кодек: x264, AVC
Качество: WebRip 1080p
Видео: 1920x1080, 15000 kbps, 23,976 fps

1. AC-3, 448 kbps, 48 KHz, 2 channels
2. AC-3, 448 kbps, 48 KHz, 2 channels
3. AC-3, 448 kbps, 48 KHz, 2 channels
4. AAC, 192 kbps, 48 KHz, 2 channels
General
Unique ID : 183496688829774373961278038819990811161 (0x8A0C2D40E29113E090A12D9636D63219)
Complete name : Зубастики 2 [Critters 2, 1988] 1080p.mkv
Format : Matroska
Format version : Version 2
File size : 8.64 GiB
Duration : 1 h 25 min
Overall bit rate mode : Variable
Overall bit rate : 14.4 Mb/s
Encoded date : UTC 2016-12-27 18:45:38
Writing application : mkvmerge v4.2.0 ('No Talking') сборка от Jul 28 2010 18:38:23
Writing library : libebml v1.0.0 + libmatroska v1.0.0

Video
ID : 1
Format : AVC
Format/Info : Advanced Video Codec
Format profile : High@L4
Format settings, CABAC : Yes
Format settings, ReFrames : 4 frames
Muxing mode : Header stripping
Codec ID : V_MPEG4/ISO/AVC
Duration : 1 h 25 min
Bit rate mode : Variable
Maximum bit rate : 15.0 Mb/s
Width : 1 920 pixels
Height : 1 080 pixels
Display aspect ratio : 16:9
Frame rate mode : Constant
Frame rate : 23.976 (24000/1001) FPS
Color space : YUV
Chroma subsampling : 4:2:0
Bit depth : 8 bits
Scan type : Progressive
Title : Critters 2
Writing library : x264 core 148 r2623 d5b2374
Encoding settings : cabac=1 / ref=4 / deblock=1:-1:-1 / analyse=0x3:0x133 / me=umh / subme=9 / psy=1 / psy_rd=1.00:0.15 / mixed_ref=1 / me_range=24 / chroma_me=1 / trellis=2 / 8x8dct=1 / cqm=0 / deadzone=21,11 / fast_pskip=1 / chroma_qp_offset=-3 / threads=34 / lookahead_threads=5 / sliced_threads=0 / nr=150 / decimate=1 / interlaced=0 / bluray_compat=0 / constrained_intra=0 / bframes=8 / b_pyramid=2 / b_adapt=2 / b_bias=0 / direct=3 / weightb=1 / open_gop=0 / weightp=2 / keyint=120 / keyint_min=61 / scenecut=0 / intra_refresh=0 / rc_lookahead=120 / rc=crf / mbtree=1 / crf=18.0 / qcomp=0.60 / qpmin=0 / qpmax=69 / qpstep=4 / vbv_maxrate=15000 / vbv_bufsize=31250 / crf_max=0.0 / nal_hrd=vbr / filler=0 / ip_ratio=1.40 / aq=3:1.00
Default : Yes
Forced : No
Color range : Limited
Color primaries : BT.709
Transfer characteristics : BT.709
Matrix coefficients : BT.709

Audio #1
ID : 2
Format : AC-3
Format/Info : Audio Coding 3
Mode extension : CM (complete main)
Format settings, Endianness : Big
Muxing mode : Header stripping
Codec ID : A_AC3
Duration : 1 h 25 min
Bit rate mode : Constant
Bit rate : 448 kb/s
Channel(s) : 2 channels
Channel positions : Front: L R
Sampling rate : 48.0 kHz
Frame rate : 31.250 FPS (1536 spf)
Compression mode : Lossy
Delay relative to video : -67 ms
Stream size : 275 MiB (3%)
Title : Двухголосый (Инис)
Language : Russian
Default : No
Forced : No

Audio #2
ID : 3
Format : AC-3
Format/Info : Audio Coding 3
Mode extension : CM (complete main)
Format settings, Endianness : Big
Muxing mode : Header stripping
Codec ID : A_AC3
Duration : 1 h 25 min
Bit rate mode : Constant
Bit rate : 448 kb/s
Channel(s) : 2 channels
Channel positions : Front: L R
Sampling rate : 48.0 kHz
Frame rate : 31.250 FPS (1536 spf)
Compression mode : Lossy
Delay relative to video : -67 ms
Stream size : 275 MiB (3%)
Title : Двухголосый (ТВ6)
Language : Russian
Default : No
Forced : No

Audio #3
ID : 4
Format : AC-3
Format/Info : Audio Coding 3
Mode extension : CM (complete main)
Format settings, Endianness : Big
Muxing mode : Header stripping
Codec ID : A_AC3
Duration : 1 h 25 min
Bit rate mode : Constant
Bit rate : 448 kb/s
Channel(s) : 2 channels
Channel positions : Front: L R
Sampling rate : 48.0 kHz
Frame rate : 31.250 FPS (1536 spf)
Compression mode : Lossy
Delay relative to video : -67 ms
Stream size : 275 MiB (3%)
Title : Гаврилов
Language : Russian
Default : No
Forced : No

Audio #4
ID : 5
Format : AAC
Format/Info : Advanced Audio Codec
Format profile : LC
Codec ID : A_AAC
Duration : 1 h 25 min
Channel(s) : 2 channels
Channel positions : Front: L R
Sampling rate : 48.0 kHz
Frame rate : 46.875 FPS (1024 spf)
Compression mode : Lossy
Delay relative to video : -83 ms
Title : Original
Language : English
Default : No
Forced : No



Скачать Зубастики.2.Основное.блюдо.Critters.2.(Мик.Гэррис).[1988.фантастика.ужасы.комедия.WEBRip].[1080p].[DVO]x2+[AVO]+[Оригинал].torrent без регистрации
Золото ЗОЛОТАЯ РАЗДАЧА! СКАЧАННОЕ НЕ ЗАСЧИТЫВАЕТСЯ! Золото
Дата: Зарегистрирован   [ Тип: внутренний ] Как тут cкачать?
MAGNET ссылка
MAGNET ссылка


Скачать .torrent

44 KB

Статус: проверено DHT
Скачан: торрент - 16 раз, раздача полностью - 6 раз
Размер: 8,64 GB
Оценка:  - (Голосов: 0)
Поблагодарили: 0
Поделиться ссылкой на эту раздачу с друзьями:
В контактеFacebookОдноклассникиTwitterLivejournalМой МирLiveinternet
 

 
Показать сообщения:    


Вы не можете начинать темы
Вы не можете отвечать на сообщения
Вы не можете редактировать свои сообщения
Вы не можете удалять свои сообщения
Вы не можете голосовать в опросах
Вы не можете прикреплять файлы к сообщениям
Вы можете скачивать файлы