Loading...
Error

Скачать Щепка / Sliver (Филлип Нойс) [1993, триллер, драма, BDRip] [720p] [MVO]+[DVO]+[AVO]x4+[Eng]+[Sub]x2 торрент без регистрации

Статистика раздачи
Размер:  9,09 GB   |    Скачан:  6 раз
Сидов:  1  [  0 KB/s  ]  
 
 
 
Автор Сообщение

Marsianka

[] 

Щепка / Sliver

«You like to watch...don't you»

Русское название: Щепка
Оригинальное название: Sliver
Год выпуска: 1993
Жанр: триллер, драма
Выпущено: США
Режиссер: Филлип Нойс
В ролях: Шэрон Стоун , Уильям Болдуин , Том Беренджер , Полли Уокер , Коллин Кэмп , Аманда Формен , Мартин Ландау , Си Си Эйч Паундер , Нина Фош , Кин Кертис , Николас Прайор , Энн Бетанкур
Перевод: Профессиональный многоголосый, Профессиональный двухголосый, Авторский одноголосый


Сюжет фильма:
Сотрудница издательства Кей Норрис переезжает на новую квартиру в модном небоскребе, прозванном «щепка». Там она становится объектом соперничества двух мужчин - владельца дома и одного из жильцов, автора популярных детективов.



Качество: BDRip 720p
Формат: AVC (библиотека кодирования x.264)
Контейнер (Расширение): MKV
Видео: 1280x610, 6793 Кбит/сек, 23,976 кадр/сек, 0,363 Бит/[Пиксели*Кадры]
Аудио №1: русский / AC3 / 2.0 / 48 kHz / 192 kbps / |Профессиональный многоголосый, HTB+|
Аудио №2: русский / AC3 / 2.0 / 48 kHz / 192 kbps / |Профессиональный двухголосый, Премьер видео|
Аудио №3: русский / DTS-HD / 2.0 / 48 kHz / 1754 kbps / 24 bit (Core: 2.0 / 48 kHz / 1509 kbps / 24 bit) |Авторский одноголосый, Сербин|
Аудио №4: русский / DTS-HD / 2.0 / 48 kHz / 1739 kbps / 24 bit (Core: 2.0 / 48 kHz / 1509 kbps / 24 bit) |Авторский одноголосый, Михалёв|
Аудио №5: русский / AC3 / 5.1 / 48 kHz / 448 kbps / |Авторский одноголосый, Сербин|
Аудио №6: русский / AC3 / 5.1 / 48 kHz / 448 kbps / |Авторский одноголосый, Михалёв|
Аудио №7: русский / AC3 / 2.0 / 48 kHz / 192 kbps / |Авторский одноголосый, Пронин|
Аудио №8: английский / AC3 / 5.1 / 48 kHz / 448 kbps /
Субтитры: русские, английские
Навигация по главам(Чаптеры): есть
Продолжительность: 01:46:31

Автор рипа: Группа: &


*** За выкуп и изготовление дорог Ю.Сербина и А. Михалёва спасибо HD AVO - Форум любителей авторского перевода фильмов


Format : Matroska
Format version : Version 2
File size : 9.09 GiB
Duration : 1 h 47 min
Overall bit rate : 12.1 Mb/s
Movie name : Sliver.(1993).BDRip.720p.[denis100].R-Rated
Encoded date : UTC 2016-12-27 11:49:36
Writing application : mkvmerge v5.8.0 ('No Sleep / Pillow') built on Sep 2 2012 15:37:04
Writing library : libebml v1.2.3 + libmatroska v1.3.0

Video
ID : 1
Format : AVC
Format/Info : Advanced Video Codec
Format profile : High@L4.1
Format settings, CABAC : Yes
Format settings, ReFrames : 10 frames
Codec ID : V_MPEG4/ISO/AVC
Duration : 1 h 47 min
Nominal bit rate : 6 793 kb/s
Width : 1 280 pixels
Height : 610 pixels
Display aspect ratio : 2.098
Frame rate mode : Constant
Frame rate : 23.976 (24000/1001) FPS
Color space : YUV
Chroma subsampling : 4:2:0
Bit depth : 8 bits
Scan type : Progressive
Bits/(Pixel*Frame) : 0.363
Title : Sliver.(1993).BDRip.720p.[denis100].R-Rated
Writing library : x264 core 148 r2744 b97ae06
Encoding settings : cabac=1 / ref=10 / deblock=1:-3:-3 / analyse=0x3:0x133 / me=umh / subme=11 / psy=1 / psy_rd=1.00:0.10 / mixed_ref=1 / me_range=32 / chroma_me=1 / trellis=2 / 8x8dct=1 / cqm=0 / deadzone=21,11 / fast_pskip=0 / chroma_qp_offset=-3 / threads=6 / lookahead_threads=1 / sliced_threads=0 / nr=0 / decimate=1 / interlaced=0 / bluray_compat=0 / constrained_intra=0 / bframes=10 / b_pyramid=2 / b_adapt=2 / b_bias=0 / direct=3 / weightb=1 / open_gop=0 / weightp=2 / keyint=240 / keyint_min=23 / scenecut=40 / intra_refresh=0 / rc=2pass / mbtree=0 / bitrate=6793 / ratetol=1.0 / qcomp=0.60 / qpmin=0 / qpmax=69 / qpstep=4 / cplxblur=20.0 / qblur=0.5 / ip_ratio=1.40 / pb_ratio=1.30 / aq=1:0.85
Language : English
Default : Yes
Forced : No

Audio #1
ID : 2
Format : AC-3
Format/Info : Audio Coding 3
Mode extension : CM (complete main)
Format settings, Endianness : Big
Codec ID : A_AC3
Duration : 1 h 47 min
Bit rate mode : Constant
Bit rate : 192 kb/s
Channel(s) : 2 channels
Channel positions : Front: L R
Sampling rate : 48.0 kHz
Frame rate : 31.250 FPS (1536 spf)
Compression mode : Lossy
Stream size : 148 MiB (2%)
Title : MVO, HTB+
Language : Russian
Default : No
Forced : No

Audio #2
ID : 3
Format : AC-3
Format/Info : Audio Coding 3
Mode extension : CM (complete main)
Format settings, Endianness : Big
Codec ID : A_AC3
Duration : 1 h 47 min
Bit rate mode : Constant
Bit rate : 192 kb/s
Channel(s) : 2 channels
Channel positions : Front: L R
Sampling rate : 48.0 kHz
Frame rate : 31.250 FPS (1536 spf)
Compression mode : Lossy
Stream size : 148 MiB (2%)
Title : MVO, Премьер видео
Language : Russian
Default : No
Forced : No

Audio #3
ID : 4
Format : DTS
Format/Info : Digital Theater Systems
Format profile : MA / Core
Mode : 16
Format settings, Endianness : Big
Codec ID : A_DTS
Duration : 1 h 47 min
Bit rate mode : Variable / Constant
Bit rate : Unknown / 1 509 kb/s
Channel(s) : 2 channels
Channel positions : Front: L R
Sampling rate : 48.0 kHz
Frame rate : 93.750 FPS (512 spf)
Bit depth : 24 bits
Compression mode : Lossless / Lossy
Title : AVO, Сербин
Language : Russian
Default : No
Forced : No

Audio #4
ID : 5
Format : DTS
Format/Info : Digital Theater Systems
Format profile : MA / Core
Mode : 16
Format settings, Endianness : Big
Codec ID : A_DTS
Duration : 1 h 47 min
Bit rate mode : Variable / Constant
Bit rate : Unknown / 1 509 kb/s
Channel(s) : 2 channels
Channel positions : Front: L R
Sampling rate : 48.0 kHz
Frame rate : 93.750 FPS (512 spf)
Bit depth : 24 bits
Compression mode : Lossless / Lossy
Title : AVO, Михалёв
Language : Russian
Default : No
Forced : No

Audio #5
ID : 6
Format : AC-3
Format/Info : Audio Coding 3
Mode extension : CM (complete main)
Format settings, Endianness : Big
Codec ID : A_AC3
Duration : 1 h 47 min
Bit rate mode : Constant
Bit rate : 448 kb/s
Channel(s) : 6 channels
Channel positions : Front: L C R, Side: L R, LFE
Sampling rate : 48.0 kHz
Frame rate : 31.250 FPS (1536 spf)
Compression mode : Lossy
Stream size : 345 MiB (4%)
Title : AVO, Сербин
Language : Russian
Default : No
Forced : No

Audio #6
ID : 7
Format : AC-3
Format/Info : Audio Coding 3
Mode extension : CM (complete main)
Format settings, Endianness : Big
Codec ID : A_AC3
Duration : 1 h 47 min
Bit rate mode : Constant
Bit rate : 448 kb/s
Channel(s) : 6 channels
Channel positions : Front: L C R, Side: L R, LFE
Sampling rate : 48.0 kHz
Frame rate : 31.250 FPS (1536 spf)
Compression mode : Lossy
Stream size : 345 MiB (4%)
Title : AVO, Михалёв
Language : Russian
Default : No
Forced : No

Audio #7
ID : 8
Format : AC-3
Format/Info : Audio Coding 3
Mode extension : CM (complete main)
Format settings, Endianness : Big
Codec ID : A_AC3
Duration : 1 h 47 min
Bit rate mode : Constant
Bit rate : 192 kb/s
Channel(s) : 2 channels
Channel positions : Front: L R
Sampling rate : 48.0 kHz
Frame rate : 31.250 FPS (1536 spf)
Compression mode : Lossy
Stream size : 148 MiB (2%)
Title : AVO, Пронин
Language : Russian
Default : No
Forced : No

Audio #8
ID : 9
Format : AC-3
Format/Info : Audio Coding 3
Mode extension : CM (complete main)
Format settings, Endianness : Big
Codec ID : A_AC3
Duration : 1 h 47 min
Bit rate mode : Constant
Bit rate : 448 kb/s
Channel(s) : 6 channels
Channel positions : Front: L C R, Side: L R, LFE
Sampling rate : 48.0 kHz
Frame rate : 31.250 FPS (1536 spf)
Compression mode : Lossy
Stream size : 345 MiB (4%)
Language : English
Default : No
Forced : No

Text #1
ID : 10
Format : UTF-8
Codec ID : S_TEXT/UTF8
Codec ID/Info : UTF-8 Plain Text
Language : Russian
Default : No
Forced : No

Text #2
ID : 11
Format : UTF-8
Codec ID : S_TEXT/UTF8
Codec ID/Info : UTF-8 Plain Text
Language : English
Default : No
Forced : No

Menu
00:00:00.000 : :Chapter 01
00:04:12.877 : :Chapter 02
00:09:54.802 : :Chapter 03
00:19:07.729 : :Chapter 04
00:30:37.544 : :Chapter 05
00:38:24.135 : :Chapter 06
00:50:17.472 : :Chapter 07
00:57:37.954 : :Chapter 08
01:08:27.728 : :Chapter 09
01:12:09.241 : :Chapter 10
01:14:17.286 : :Chapter 11
01:26:37.108 : :Chapter 12
01:32:50.565 : :Chapter 13
01:46:29.383 : :Chapter 14

x264 [info]: frame I:1015 Avg QP:14.33 size:121655
x264 [info]: frame P:30306 Avg QP:16.88 size: 61706
x264 [info]: frame B:121877 Avg QP:18.87 size: 28126



Скачать Щепка.Sliver.(Филлип.Нойс).[1993.триллер.драма.BDRip].[720p].[MVO]+[DVO]+[AVO]x4+[Eng]+[Sub]x2.torrent без регистрации
Золото ЗОЛОТАЯ РАЗДАЧА! СКАЧАННОЕ НЕ ЗАСЧИТЫВАЕТСЯ! Золото
Дата: Зарегистрирован   [ Тип: внутренний ] Как тут cкачать?
MAGNET ссылка
MAGNET ссылка


Скачать .torrent

46 KB

Статус: проверено DHT
Скачан: торрент - 6 раз, раздача полностью - 1 раз
Размер: 9,09 GB
Оценка:  - (Голосов: 0)
Поблагодарили: 0
Поделиться ссылкой на эту раздачу с друзьями:
В контактеFacebookОдноклассникиTwitterLivejournalМой МирLiveinternet
 

 
Показать сообщения:    


Вы не можете начинать темы
Вы не можете отвечать на сообщения
Вы не можете редактировать свои сообщения
Вы не можете удалять свои сообщения
Вы не можете голосовать в опросах
Вы не можете прикреплять файлы к сообщениям
Вы можете скачивать файлы