Loading...
Error

Скачать (Концерт, поп) Дискотека 80-х от Авторадио. 15 лет [Полная версия] (26.11.2016) [2016-2017, HDTV] [1080p] торрент без регистрации

Статистика раздачи
Размер:  23,92 GB   |    Скачан:  18 раз

Полного источника не было: 30 минут

 
 
 
Автор Сообщение

Marsianka

[] 

Информация о фильме
Оригинальное название: Дискотека 80-х 15 лет. Авторадио (полная версия) (26.11.2016)
Год выхода: 2017
Жанр: Концерт, поп

О фильме:
26 ноября в московском спорткомплексе «Олимпийский» состоялся 15-й международный музыкальный фестиваль «Авторадио» «Дискотека 80-х». Организаторы шоу подготовили уникальную программу с участием любимых исполнителей. На сцене такие звезды как С.С. Catch, Сандра, Dschinghis Khan, Ricchi e Poveri, Тото Кутуньо, Secret Service. Из отечественных - Олег Газманов, Юрий Шатунов, «Веселые ребята», ветераны советской сцены Лев Лещенко, Юрий Антонов, группы Zodiac, «Ялла», «Песняры». Специальный гость UB 40 вместе с Али Кэмпбеллом исполнил 4 композиции. В рамках многолетней истории «Labour Of Love» прогремели на весь мир хиты «Red Red Wine» и «Kingston Town». Среди тех, по кому уже успели соскучиться зрители, певица Сандра. По ее словам, каждое участие в «Дискотеке 80-х» становится для нее незабываемым событием: "Самая важная для меня вещь - конечно, зрители. Здесь они просто потрясающие! Принимают с таким теплом, что не хочется уходить со сцены. Нигде в мире меня так хорошо не встречают". Не менее яркие эмоции испытывает и «рекордсменка» фестиваля С.С. Catch, которая поет на «Дискотеке 80-х» уже в 11-й раз. «Дискотека 80-х» стала частью жизни тех, кто с любовью и заботой о зрителях, честно и самоотверженно творит шоу мирового уровня, где все самое передовое и настоящее: подлинные звезды 80-х, модные спецэффекты, специально изготовленные декорации, костюмы, профессионально поставленные танцевальные номера. Этот фестиваль, который многие уже просто называют «Дискотека Авторадио», превратился в элемент нашего общего национального культурного пространства и органично вписался в праздничный эфир ведущих телеканалов России.

Выпущено: Россия
Продолжительность: 04:01:06

Файл
Качество: HDTV 1080p
Видео: MPEG-4 AVC, Main@L4.2, 13900 Кбит/с, 1920x1080, 29,97 кадр/с
Звук: AAC, 2 ch, 256 Кбит/с
Полная версия дискотеки 80-х смонтирована специально для фанатов фестиваля. Cобрана из открытых источников, монтажные планы отличаются от трансляции нтв. Получилось добыть практически весь материал, кроме Zodiac, первый трек показал канал НТВ, за "Рок во льдах" спасибо Авторадио, а вот остальные 3 композиции были только на концерте и интернет-трансляции соответственно, поэтому тут прошу сильно не ругаться. В остальном сделал максимум возможного, в том числе и по звуку, собирал для своей домашней коллекции.
Монтаж и обработка звука: Владимир Кулешов (music 80)
01. Zodiac - Зодиак
02. Zodiac - Провинциальное диско
03. Zodiac - Таинственная галактика
04. Zodiac - Пасифик
05. Zodiac - Рок Во Льдах
06. Генеральный продюсер фестиваля Дискотека 80-х Юрий Костин
07. Веселые ребята - Поппури (Бологое / Люди встречаются / Напиши мне письмо / Не волнуйтесь, тетя / Бродячие артисты / Розовые розы)
08. Sandra - Heaven Can Wait
09. Sandra - Secret Land & Everlasting Love
10. Sandra - Maria Magdalena
11. Юрий Шатунов - Белые Розы
12. Юрий Шатунов - Розовый Вечер
13. Юрий Шатунов - Детство
14. Юрий Шатунов - Седая Ночь
15. Secret Service - Ten O Clock Postman
16. Secret Service - How I Want You
17. Secret Service - Flash In The Night
18. Secret Service - LA Goodbye
19. Песняры - Беловежская Пуща
20. Песняры - Вологда
21. Ricchi e Poveri - Vulevu Dance
22. Ricchi e Poveri - Acapulco
23. Ricchi e Poveri - Come Vorrei
24. Ricchi e Poveri - Made In Italy
25. Олег Газманов - Морячка
26. Олег Газманов - Единственная Моя
27. Олег Газманов - Сделан в СССР
28. Ялла - Последняя Поэма
29. Ялла - Учкудук
30. Dschinghis Khan - Dschinghis Khan
31. Dschinghis Khan - Moscau
32. Dschinghis Khan - Rocking Son of Dschinghis Khan
33. София Ротару - Червона Рута
34. София Ротару - Лаванда
35. София Ротару - Луна-Луна
36. Toto Cutugno - Amore
37. Toto Cutugno - L'ete Indien
38. Toto Cutugno - L'Italiano
39. Toto Cutugno - Soli
40. Юрий Антонов - Если Любишь Ты
41. Юрий Антонов - Я вспоминаю
42. Юрий Антонов - Мечта Сбывается
43. UB40 feat. Ali Campbel - I Can t Help
44. UB40 feat. Ali Campbel - The Way You Do
45. UB40 feat. Ali Campbell - Kingston Town
46. UB40 feat. Ali Campbel - Red Red Wine
47. Лев Лещенко и Леонид Руденко - Соловьиная Роща
48. Лев Лещенко & DJ Леонид Руденко - Прощай
49. C. C. Catch - Anniversary Mega Mix
50. С. С. Сatch - I Can Lose My Heart Tonight
51. С. С. Сatch - Heaven and Hell
52. Eddie Huntington - USSR
53. Мурзилки Int. - Гимн Авторадио
General
Complete name : H:AUTORADIO 20162016 Фестиваль авторадио Дискотека 80-х 15 лет (Pop, HDTV 1080p).mp4
Format : MPEG-4
Format profile : Base Media / Version 2
Codec ID : mp42 (mp42/mp41)
File size : 23.9 GiB
Duration : 4h 1mn
Overall bit rate mode : Variable
Overall bit rate : 14.2 Mbps
Encoded date : UTC 2017-01-04 08:25:47
Tagged date : UTC 2017-01-04 08:47:11
©TIM : 00;00;00;00
©TSC : 30000
©TSZ : 1001

Video
ID : 1
Format : AVC
Format/Info : Advanced Video Codec
Format profile : Main@L4.2
Format settings, CABAC : Yes
Format settings, ReFrames : 3 frames
Codec ID : avc1
Codec ID/Info : Advanced Video Coding
Duration : 4h 1mn
Source duration : 4h 1mn
Bit rate : 13.9 Mbps
Width : 1 920 pixels
Height : 1 080 pixels
Display aspect ratio : 16:9
Frame rate mode : Constant
Frame rate : 29.970 (30000/1001) fps
Standard : NTSC
Color space : YUV
Chroma subsampling : 4:2:0
Bit depth : 8 bits
Scan type : Progressive
Bits/(Pixel*Frame) : 0.224
Stream size : 23.5 GiB (98%)
Source stream size : 23.5 GiB (98%)
Language : English
Encoded date : UTC 2017-01-04 08:25:47
Tagged date : UTC 2017-01-04 08:25:47
Color range : Limited
Color primaries : BT.709
Transfer characteristics : BT.709
Matrix coefficients : BT.709

Audio
ID : 2
Format : AAC
Format/Info : Advanced Audio Codec
Format profile : LC
Codec ID : 40
Duration : 4h 1mn
Source duration : 4h 1mn
Bit rate mode : Variable
Bit rate : 254 Kbps
Maximum bit rate : 357 Kbps
Channel(s) : 2 channels
Channel positions : Front: L R
Sampling rate : 44.1 KHz
Frame rate : 43.066 fps (1024 spf)
Compression mode : Lossy
Stream size : 437 MiB (2%)
Source stream size : 437 MiB (2%)
Language : English
Encoded date : UTC 2017-01-04 08:25:47
Tagged date : UTC 2017-01-04 08:25:47
Релиз от: music80



Скачать Дискотека.80-х.от.Авторадио.15.лет.[Полная.версия].(26.11.2016).[2016-2017.HDTV].[1080p].torrent без регистрации
Золото ЗОЛОТАЯ РАЗДАЧА! СКАЧАННОЕ НЕ ЗАСЧИТЫВАЕТСЯ! Золото
Дата: Зарегистрирован   [ Тип: внутренний ] Как тут cкачать?
MAGNET ссылка
MAGNET ссылка


Скачать .torrent

120 KB

Статус: проверено DHT
Скачан: торрент - 18 раз, раздача полностью - 20 раз
Размер: 23,92 GB
Оценка:  - (Голосов: 0)
Поблагодарили: 0
Поделиться ссылкой на эту раздачу с друзьями:
В контактеFacebookОдноклассникиTwitterLivejournalМой МирLiveinternet
 

 
Показать сообщения:    


Вы не можете начинать темы
Вы не можете отвечать на сообщения
Вы не можете редактировать свои сообщения
Вы не можете удалять свои сообщения
Вы не можете голосовать в опросах
Вы не можете прикреплять файлы к сообщениям
Вы можете скачивать файлы