Loading...
Error

Скачать Сотворившая чудо / The Miracle Worker (Артур Пенн) [1962, драма, биография, HDTVRip] [720p] [DVO]+[Eng]+[Sub] торрент без регистрации

Статистика раздачи
Размер:  4,49 GB   |    Скачан:  11 раз

Полного источника не было: 20 минут

 
 
 
Автор Сообщение

Marsianka

[] 

Информация о фильме
Название: Сотворившая чудо
Оригинальное название: The Miracle Worker
Год выхода: 1962
Жанр: драма, биография
Режиссер: Артур Пенн
В ролях: Энн Бэнкрофт, Виктор Джори, Инга Свенсон, Эндрю Прайн, Кэтлин Камгис, Пэтти Дьюк

О фильме:
Хелен Келлер (27 июня 1880 — 1 июня 1968) — слепоглухая американская писательница, преподавательница и общественный деятель. Она родилась нормальным здоровым ребенком в городе Таксамбия, штат Алабама, в прекрасной старинной семье. В возрасте 19 месяцев после острого воспаления мозга и желудка Елена лишилась зрения и слуха, что для такого маленького ребенка означало и немоту. Ее хотели записать в умственно отсталые, но она стала первым слепоглухим человеком, получившим высшее образование. Через много лет после их знакомства, Марк Твен имел основания сказать: в XIX веке было два по-настоящему великих человека — Наполеон и Елена Келлер.



Страна: США
Продолжительность: 01:42:12
Перевод: Профессиональный (двухголосый закадровый) НТВ+

Файл
Формат: MKV
Видео: 1280x720 at 25.000 fps, MPEG-4 AVC, ~5713 kbps avg
Aудио#1: Russian: 48 kHz, AC3, 2/0 (L,R) ch, ~192.00 kbps avg
Aудио#2: English: 48 kHz, AC3, 2/0 (L,R) ch, ~384.00 kbps avg
Субтитры: Английские
За русскую дорожку спасибо Lord25
Работа со звуком - ghoulie
Сборка рипа с русской дорожкой - Бурый Иван
General
Unique ID : 251394774948284209478256236768332331056 (0xBD20DF5BBC9044C3AA92F5743C2FB830)
Complete name : The.Miracle.Worker.1962.720p.HDTVRip.x264-GABE.mkv
Format : Matroska
Format version : Version 4 / Version 2
File size : 4.49 GiB
Duration : 1 h 42 min
Overall bit rate mode : Variable
Overall bit rate : 6 291 kb/s
Movie name : The Miracle Worker 1962
Encoded date : UTC 2013-08-08 19:27:11
Writing application : mkvmerge v6.2.0 ('Promised Land') built on Apr 28 2013 12:22:01
Writing library : libebml v1.3.0 + libmatroska v1.4.0

Video
ID : 1
Format : AVC
Format/Info : Advanced Video Codec
Format profile : High@L4.1
Format settings, CABAC : Yes
Format settings, ReFrames : 7 frames
Codec ID : V_MPEG4/ISO/AVC
Duration : 1 h 42 min
Bit rate mode : Variable
Bit rate : 5 713 kb/s
Maximum bit rate : 62.5 Mb/s
Width : 1 280 pixels
Height : 720 pixels
Display aspect ratio : 16:9
Frame rate mode : Constant
Frame rate : 25.000 FPS
Color space : YUV
Chroma subsampling : 4:2:0
Bit depth : 8 bits
Scan type : Progressive
Bits/(Pixel*Frame) : 0.248
Stream size : 3.99 GiB (89%)
Writing library : x264 core 129 r2245 bc13772
Encoding settings : cabac=1 / ref=8 / deblock=1:-3:-3 / analyse=0x3:0x113 / me=umh / subme=8 / psy=1 / psy_rd=1.00:0.00 / mixed_ref=1 / me_range=16 / chroma_me=1 / trellis=2 / 8x8dct=1 / cqm=0 / deadzone=21,11 / fast_pskip=1 / chroma_qp_offset=-2 / threads=6 / lookahead_threads=1 / sliced_threads=0 / nr=0 / decimate=1 / interlaced=0 / bluray_compat=0 / constrained_intra=0 / bframes=7 / b_pyramid=1 / b_adapt=2 / b_bias=0 / direct=3 / weightb=1 / open_gop=0 / weightp=2 / keyint=250 / keyint_min=25 / scenecut=40 / intra_refresh=0 / rc_lookahead=50 / rc=2pass / mbtree=1 / bitrate=5713 / ratetol=1.0 / qcomp=0.60 / qpmin=0 / qpmax=69 / qpstep=4 / cplxblur=20.0 / qblur=0.5 / vbv_maxrate=62500 / vbv_bufsize=62500 / nal_hrd=vbr / ip_ratio=1.40 / aq=1:1.00
Default : Yes
Forced : No

Audio #1
ID : 2
Format : AC-3
Format/Info : Audio Coding 3
Mode extension : CM (complete main)
Format settings, Endianness : Big
Codec ID : A_AC3
Duration : 1 h 42 min
Bit rate mode : Constant
Bit rate : 192 kb/s
Channel(s) : 2 channels
Channel positions : Front: L R
Sampling rate : 48.0 kHz
Frame rate : 31.250 FPS (1536 spf)
Bit depth : 16 bits
Compression mode : Lossy
Stream size : 140 MiB (3%)
Language : Russian
Default : Yes
Forced : No

Audio #2
ID : 3
Format : AC-3
Format/Info : Audio Coding 3
Mode extension : CM (complete main)
Format settings, Endianness : Big
Codec ID : A_AC3
Duration : 1 h 42 min
Bit rate mode : Constant
Bit rate : 384 kb/s
Channel(s) : 2 channels
Channel positions : Front: L R
Sampling rate : 48.0 kHz
Frame rate : 31.250 FPS (1536 spf)
Bit depth : 16 bits
Compression mode : Lossy
Stream size : 281 MiB (6%)
Language : English
Default : No
Forced : No

Text
ID : 4
Format : UTF-8
Codec ID : S_TEXT/UTF8
Codec ID/Info : UTF-8 Plain Text
Language : English
Default : No
Forced : No



Скачать Сотворившая.чудо.The.Miracle.Worker.(Артур.Пенн).[1962.драма.биография.HDTVRip].[720p].[DVO]+[Eng]+[Sub].torrent без регистрации
Золото ЗОЛОТАЯ РАЗДАЧА! СКАЧАННОЕ НЕ ЗАСЧИТЫВАЕТСЯ! Золото
Дата: Зарегистрирован   [ Тип: внутренний ] Как тут cкачать?
MAGNET ссылка
MAGNET ссылка


Скачать .torrent

23 KB

Статус: проверено DHT
Скачан: торрент - 11 раз, раздача полностью - 4 раз
Размер: 4,49 GB
Оценка:  - (Голосов: 0)
Поблагодарили: 1
Поделиться ссылкой на эту раздачу с друзьями:
В контактеFacebookОдноклассникиTwitterLivejournalМой МирLiveinternet
 

 
Показать сообщения:    


Вы не можете начинать темы
Вы не можете отвечать на сообщения
Вы не можете редактировать свои сообщения
Вы не можете удалять свои сообщения
Вы не можете голосовать в опросах
Вы не можете прикреплять файлы к сообщениям
Вы можете скачивать файлы