Loading...
Error

Скачать Изумрудный Город / Emerald City (Сезон 01) (Тарсем Сингх) [2017, Фэнтези, приключения, WEB-DL] [1080p] [MVO] (NewStudio) торрент без регистрации

Статистика раздачи
Размер:  17,59 GB   |    Скачан:  57 раз
Сидов:  1  [  0 KB/s  ]  

 
 
 
Автор Сообщение

leon030982

[] 


Изумрудный город / Emerald City



Год выпуска: 2017
Страна: США
Жанр: фэнтези, приключения
Продолжительность: ~ 00:40:00
Перевод: Профессиональный (многоголосый закадровый) NewStudio
Субтитры: нет

Режиссёр: Тарсем Сингх

В ролях: Герран Хауэлл, Адриа Архона, Винсент Д’Онофрио, Оливер Джексон-Коэн, Изабель Лукас, Стефани Мартини, Ана Улару, Рокси Штернберг, Ребека Ри, Оулавюр Дарри Оулафссон

Описание: Страна Оз всегда пленила искателей приключений своими красотами и загадками. Главная героиня еще не знает, с чем ей предстоит столкнуться в этом очаровательном мире. Дороти Гейл недавно исполнилось двадцать лет. Она весьма своенравная и упрямая девушка, которая считает, что в мире, если волшебство и существует, то , скорее всего, недоброе. Дороти попадает в мир Оз, разрываемый войной. Ей предстоит принять одну из сторон раздираемого на части королевства. Проект расскажет о невероятных интригах, человеческих чувствах и эмоциях, а также покажет, как именно борьба за власть меняет людей. Предлагаем вашему вниманию первый сезон сериала, основанного на произведении Фрэнка Баума!



Качество: WEB-DL [1080p]
Формат: MKV
Видео кодек: AVC
Аудио кодек: AC3
Видео: MPEG-4 AVC, ~ 4000 Кбит/с, 1920x1080, 23.976 fps
Аудио 1: Dolby AC3, 48000Hz, 2 Ch, 384Kbps [MVO]
Аудио 2: Dolby AC3, 48000Hz, 2 Ch, 384Kbps [ENG]

Торент обновлен! добавлена 10-я серия
General
Unique ID : 174498207887065574367782880844352204271 (0x834721E3BB547784933AD94C812E2DEF)
Complete name : E:\Изумрудный город (Season 01 ) NewStudio 1080\Emerald.City.s01e01.WEBDL.1080p.NewStudio.TV.mkv
Format : Matroska
Format version : Version 4 / Version 2
File size : 1.67 GiB
Duration : 40mn 21s
Overall bit rate : 5 936 Kbps
Encoded date : UTC 2017-01-11 02:34:34
Writing application : mkvmerge v8.2.0 ('World of Adventure') 32bit
Writing library : libebml v1.3.1 + libmatroska v1.4.2

Video
ID : 1
Format : AVC
Format/Info : Advanced Video Codec
Format profile : High@L4
Format settings, CABAC : Yes
Format settings, ReFrames : 4 frames
Codec ID : V_MPEG4/ISO/AVC
Duration : 40mn 21s
Bit rate : 5 050 Kbps
Width : 1 920 pixels
Height : 1 080 pixels
Display aspect ratio : 16:9
Frame rate mode : Constant
Frame rate : 23.976 fps
Color space : YUV
Chroma subsampling : 4:2:0
Bit depth : 8 bits
Scan type : Progressive
Bits/(Pixel*Frame) : 0.102
Stream size : 1.42 GiB (85%)
Language : English
Default : Yes
Forced : No
Color range : Limited
Color primaries : BT.709
Transfer characteristics : BT.709
Matrix coefficients : BT.709

Audio #1
ID : 2
Format : AC-3
Format/Info : Audio Coding 3
Mode extension : CM (complete main)
Format settings, Endianness : Big
Codec ID : A_AC3
Duration : 40mn 21s
Bit rate mode : Constant
Bit rate : 384 Kbps
Channel(s) : 6 channels
Channel positions : Front: L C R, Side: L R, LFE
Sampling rate : 48.0 KHz
Compression mode : Lossy
Stream size : 111 MiB (6%)
Title : NewStudio.TV
Language : Russian
Default : Yes
Forced : No

Audio #2
ID : 3
Format : AC-3
Format/Info : Audio Coding 3
Mode extension : CM (complete main)
Format settings, Endianness : Big
Codec ID : A_AC3
Duration : 40mn 21s
Bit rate mode : Constant
Bit rate : 384 Kbps
Channel(s) : 6 channels
Channel positions : Front: L C R, Side: L R, LFE
Sampling rate : 48.0 KHz
Compression mode : Lossy
Stream size : 111 MiB (6%)
Language : English
Default : No
Forced : No
Внимание! Раздача ведётся путём добавления новых серий; при каждом добавлении создётся новый торрент. Чтобы начать докачку новой серии, пользователям необходимо сделать следующее:
Остановить скачивание.
Удалить старый торрент у себя из клиента (старые серии удалять не надо).
Скачать новый торрент и запустить его у себя в клиенте вместо старого, при этом указать клиенту путь в старую папку куда и должно происходить скачивание новых серий.
Ваш клиент при этом должен произвести хеширование (проверку) старой папки (если не производит сам - помогите ему сделать это), и будет докачивать только те серии которых у вас ещё нет. Старые серии при этом не удаляются, а продолжают раздаваться!
Eсли вы уже удалили старые серии, то предотвратить повторную закачку старых серий можно, отжав галочку в соответсвующих местах при запуске нового торрента. По возможности, желательно не удалять старые серии как можно дольше чтобы релизёр не столько продолжал раздавать старые серии, а смог сконцентрироваться на новых.




Скачать Изумрудный.Город.Emerald.City.(Сезон.01).(Тарсем.Сингх).[2017.Фэнтези.приключения.WEB-DL].[1080p].[MVO].(NewStudio).torrent без регистрации
Золото ЗОЛОТАЯ РАЗДАЧА! СКАЧАННОЕ НЕ ЗАСЧИТЫВАЕТСЯ! Золото
Дата: Зарегистрирован   [ Тип: внутренний ] Как тут cкачать?
MAGNET ссылка
MAGNET ссылка


Скачать .torrent

89 KB

Статус: проверено DHT
Скачан: торрент - 57 раз, раздача полностью - 10 раз
Размер: 17,59 GB
Оценка:  - (Голосов: 0)
Поблагодарили: 1
Поделиться ссылкой на эту раздачу с друзьями:
В контактеFacebookОдноклассникиTwitterLivejournalМой МирLiveinternet
 

 
Показать сообщения:    


Вы не можете начинать темы
Вы не можете отвечать на сообщения
Вы не можете редактировать свои сообщения
Вы не можете удалять свои сообщения
Вы не можете голосовать в опросах
Вы не можете прикреплять файлы к сообщениям
Вы можете скачивать файлы