Loading...
Error

Скачать Шесть / Six (Сезон 01) (Лесли Линка Глаттер, Микаэл Саломон) [2017, Боевик, драма, военный, история, HDTVRip] [MVO] (ColdFilm) торрент без регистрации

Статистика раздачи
Размер:  3,95 GB   |    Скачан:  24 раза

Полного источника не было: 29 минут

 
 
 
Автор Сообщение

leon030982

[] 

Шесть / Six



Год выпуска: 2017
Жанр: Боевик, драма, военный, история
Выпущено: США
Продолжительность: 1 x ~ 00:45:00
Перевод: Любительский (многоголосый) [ColdFilm]

Режиссер: Лесли Линка Глаттер, Микаэл Саломон

В ролях: Бэрри Слоун, Кайл Шмид, Хуан Пабло Раба, Эдвин Ходж, Брианна Дэвис, Надин Веласкес, Доминик Адамс, Уолтон Гоггинс, Джейлен Мур

О фильме: Военный сериал «Six» рассказывает о деятельности т.н. «SEAL Team Six» - «морских котиках» ВМС США и вдохновлён славной историей этого специального подразделения. Эта группа быстрого развёртывания принимает участие в самых сложных антитеррористических операциях, проводимых Америкой в различных частях света. В том числе, её бойцы участвовали в уничтожении Бен Ладена. Характерно, что конкретные детали деятельности группы, как правило, не комментируются ни Белым Домом, ни Министерством обороны. Отделение по специальным миссиям, как ещё называют «SEAL Team Six» в американских СМИ, тесно сотрудничает с ЦРУ, что говорит о специфике его деятельности



премьера (мир) -- 18 января 2017

Качество: HDTVRip
Формат: AVI
Видео кодек: XviD
Аудио кодек: MP3
Видео: 720x400 (1.80:1), 29.970 fps, XviD build 64 ~1479 kbps avg, 0.17 bit/pixel
Аудио: 48 kHz, MPEG Layer 3, 2 ch, ~128.00 kbps avg

Торент обновлен! добавлена 3-8-я серия
General
Complete name : E:\Six.S01E01.400p.HDTV.ColdFilm.Ru.avi
Format : AVI
Format/Info : Audio Video Interleave
File size : 479 MiB
Duration : 41mn 20s
Overall bit rate : 1 622 Kbps
Writing application : Lavf54.63.104

Video
ID : 0
Format : xvid
Codec ID : xvid
Duration : 41mn 20s
Bit rate : 1 480 Kbps
Width : 720 pixels
Height : 400 pixels
Display aspect ratio : 16:9
Frame rate : 29.970 fps
Bits/(Pixel*Frame) : 0.171
Stream size : 438 MiB (91%)

Audio
ID : 1
Format : MPEG Audio
Format version : Version 1
Format profile : Layer 3
Mode : Joint stereo
Mode extension : MS Stereo
Codec ID : 55
Codec ID/Hint : MP3
Duration : 41mn 20s
Bit rate mode : Constant
Bit rate : 128 Kbps
Channel(s) : 2 channels
Sampling rate : 48.0 KHz
Compression mode : Lossy
Stream size : 37.8 MiB (8%)
Alignment : Aligned on interleaves
Interleave, duration : 24 ms (0.72 video frame)
Writing library : LAME3.99.5
Внимание! Раздача ведётся путём добавления новых серий; при каждом добавлении создётся новый торрент. Чтобы начать докачку новой серии, пользователям необходимо сделать следующее: (1) остановить скачивание, (2) удалить старый торрент у себя из клиента (старые серии удалять не надо), (3) скачать новый торрент и запустить его у себя в клиенте вместо старого, при этом указать клиенту путь в старую папку куда и должно происходить скачивание новых серий.
Ваш клиент при этом должен произвести хеширование (проверку) старой папки (если не производит сам - помогите ему сделать это), и будет докачивать только те серии которых у вас ещё нет. Старые серии при этом не удаляются, а продолжают раздаваться!
Eсли вы уже удалили старые серии, то предотвратить повторную закачку старых серий можно, отжав галочку в соответсвующих местах при запуске нового торрента.




Скачать Шесть.Six.(Сезон.01).(Лесли.Линка.Глаттер.Микаэл.Саломон).[2017.Боевик.драма.военный.история.HDTVRip].[MVO].(ColdFilm).torrent без регистрации
Золото ЗОЛОТАЯ РАЗДАЧА! СКАЧАННОЕ НЕ ЗАСЧИТЫВАЕТСЯ! Золото
Дата: Зарегистрирован   [ Тип: внутренний ] Как тут cкачать?
MAGNET ссылка
MAGNET ссылка


Скачать .torrent

21 KB

Статус: проверено DHT
Скачан: торрент - 24 раз, раздача полностью - 8 раз
Размер: 3,95 GB
Оценка:  - (Голосов: 0)
Поблагодарили: 1
Поделиться ссылкой на эту раздачу с друзьями:
В контактеFacebookОдноклассникиTwitterLivejournalМой МирLiveinternet
 

 
Показать сообщения:    


Вы не можете начинать темы
Вы не можете отвечать на сообщения
Вы не можете редактировать свои сообщения
Вы не можете удалять свои сообщения
Вы не можете голосовать в опросах
Вы не можете прикреплять файлы к сообщениям
Вы можете скачивать файлы