Loading...
Error

Скачать Гадкие лебеди (Константин Лопушанский) [2006, драма, мистика, фантастика, триллер, DVDRip-AVC] торрент без регистрации

Статистика раздачи
Размер:  1,75 GB   |    Скачан:  19 раз
Сидов:  1  [  0 KB/s  ]  
 
 
 
Автор Сообщение

Marsianka

[] 

Название: Гадкие лебеди
Год выпуска: 2006
Жанр: драма, мистика, фантастика, триллер
Выпущено: Россия, Франция, Киностудия "Proline-film", Студия "CDP"
Режиссер: Константин Лопушанский

В ролях: Григорий Гладий, Леонид Мозговой, Алексей Кортнев, Римма Саркисян, Лаура Пицхелаури, Сергей Барковский, Ольга Самошина, Борис Бирман, Сергей Русскин, Борис Войцеховский, Ромуальд Макаренко, Владимир Марьянов, Игорь Сергеев, Олег Огий, Ирина Коровина, Светлана Немировская, Андрей Сигле, Сергей Лысов, Андрей Лосев, Алексей Исполатов, Леонид Ниценко, Ирина Основина, Дмитрий Исполатов, Алексей Ингелевич, Виктор Михайлов (II)

О фильме:
В основе сценария «Гадких лебедей» повесть братьев Стругацких о городе-призраке с интернатом для одаренных детей. Там подрастает племя молодое и пугающе странное, чьими учителями являются существа «мокрецы» — то ли мутанты, то ли пришельцы. В городе происходит беспричинное изменение климата, напоминающее вселенский потоп. Естественно, вокруг вьются бесчисленные комиссии, изучающие эту аномалию, спецслужбы и спецагенты. Герой фильма, писатель Виктор Банев вынужден вести собственное расследование этой ситуации, так как среди детей интерната находится его дочь. По сути, он включается в борьбу не только за судьбу конкретных детей и своей дочери, но и за ту форму будущего, которое выберет человечество…



Качество: DVDRip (AVC)
Видео: MPEG-4 AVC, 1852 Кбит/с, [email protected]/* */
Аудио: AC3, 6 ch, 448 Кбит/с
Продолжительность: 01:48:41
Язык: Русский
General
Unique ID : 246146770663124243435957082793412342137 (0xB92E24C52920BBD8A25A6451E6C73179)
Complete name : D:Ugly.swans.2006.DVDRip.AVC.ExKinoRay.mkv
Format : Matroska
Format version : Version 2
File size : 1.75 GiB
Duration : 1 h 48 min
Overall bit rate : 2 301 kb/s
Movie name : Гадкие лебеди (2006) from ExKinoRay
Encoded date : UTC 2017-01-22 17:32:32
Writing application : mkvmerge v7.6.0 ('Garden of Dreams') 32bit built on Feb 11 2015 00:18:47
Writing library : libebml v1.3.1 + libmatroska v1.4.2

Video
ID : 1
Format : AVC
Format/Info : Advanced Video Codec
Format profile : High@L4.1
Format settings, CABAC : Yes
Format settings, ReFrames : 14 frames
Codec ID : V_MPEG4/ISO/AVC
Duration : 1 h 48 min
Bit rate : 1 852 kb/s
Width : 720 pixels
Height : 576 pixels
Display aspect ratio : 16:9
Frame rate mode : Constant
Frame rate : 25.000 FPS
Standard : PAL
Color space : YUV
Chroma subsampling : 4:2:0
Bit depth : 8 bits
Scan type : Progressive
Bits/(Pixel*Frame) : 0.179
Stream size : 1.37 GiB (79%)
Title : Enigma
Writing library : x264 core 144 r2525 40bb568
Encoding settings : cabac=1 / ref=14 / deblock=1:-2:-2 / analyse=0x3:0x113 / me=umh / subme=10 / psy=1 / psy_rd=1.03:0.07 / mixed_ref=1 / me_range=32 / chroma_me=1 / trellis=2 / 8x8dct=1 / cqm=0 / deadzone=21,11 / fast_pskip=1 / chroma_qp_offset=-3 / threads=12 / lookahead_threads=3 / sliced_threads=0 / nr=0 / decimate=1 / interlaced=0 / bluray_compat=0 / constrained_intra=0 / bframes=11 / b_pyramid=2 / b_adapt=2 / b_bias=0 / direct=3 / weightb=1 / open_gop=0 / weightp=2 / keyint=250 / keyint_min=25 / scenecut=40 / intra_refresh=0 / rc=2pass / mbtree=0 / bitrate=1852 / ratetol=1.0 / qcomp=0.60 / qpmin=0 / qpmax=51 / qpstep=4 / cplxblur=20.0 / qblur=0.5 / ip_ratio=1.40 / pb_ratio=1.30 / aq=1:1.00
Default : Yes
Forced : No
Color range : Limited
Color primaries : BT.601 PAL
Transfer characteristics : BT.470 System B, BT.470 System G
Matrix coefficients : BT.601

Audio
ID : 2
Format : AC-3
Format/Info : Audio Coding 3
Mode extension : CM (complete main)
Format settings, Endianness : Big
Codec ID : A_AC3
Duration : 1 h 48 min
Bit rate mode : Constant
Bit rate : 448 kb/s
Channel(s) : 6 channels
Channel positions : Front: L C R, Side: L R, LFE
Sampling rate : 48.0 kHz
Frame rate : 31.250 FPS (1536 spf)
Compression mode : Lossy
Stream size : 348 MiB (19%)
Language : Russian
Default : Yes
Forced : No
Релиз от:

Автор релиза:



Скачать Гадкие.лебеди.(Константин.Лопушанский).[2006.драма.мистика.фантастика.триллер.DVDRip-AVC].torrent без регистрации
Золото ЗОЛОТАЯ РАЗДАЧА! СКАЧАННОЕ НЕ ЗАСЧИТЫВАЕТСЯ! Золото
Дата: Зарегистрирован   [ Тип: внутренний ] Как тут cкачать?
MAGNET ссылка
MAGNET ссылка


Скачать .torrent

18 KB

Статус: проверено DHT
Скачан: торрент - 19 раз, раздача полностью - 17 раз
Размер: 1,75 GB
Оценка:  - (Голосов: 0)
Поблагодарили: 2
Поделиться ссылкой на эту раздачу с друзьями:
В контактеFacebookОдноклассникиTwitterLivejournalМой МирLiveinternet
 

 
Показать сообщения:    


Вы не можете начинать темы
Вы не можете отвечать на сообщения
Вы не можете редактировать свои сообщения
Вы не можете удалять свои сообщения
Вы не можете голосовать в опросах
Вы не можете прикреплять файлы к сообщениям
Вы можете скачивать файлы